Loading...
Error

Гадкий я 2 / Despicable Me 2 (Пьер Соффин / Pierre Coffin, Крис Рено / Chris Renaud) [2013 г., мультфильм, фантастика, комедия, приключения, семейный, BDRip] Dub + Original HQ Underverse

Статистика раздачи
Размер:  2,17 GB   |    Зарегистрирован:  3 года   |    Скачан:  73 раза

Полного источника не было: 5 месяцев 9 дней

Сидов:  0  |  0 KB/s  ]   Личеров:  0  |  0 KB/s  ]

* - сиды/пиры с внешних источников

   
 
Автор Сообщение

HQ Underverse 

27-Ноя-2013 23:07

Гадкий я 2 / Despicable Me 2


Год выпуска: 2013
Жанр: мультфильм, фантастика, комедия, приключения, семейный
Страна: США
Режиссер: Пьер Соффин / Pierre Coffin, Крис Рено / Chris Renaud
Роли озвучивали: Стив Карелл, Кристен Уиг, Бенджамин Брэтт, Миранда Косгров, Расселл Брэнд, Кен Жонг, Стив Куган, Элси Фишер, Дэна Гайер, Мойзес Ариас
Сюжет фильма:
В то время как Грю, бывший суперзлодей, приспосабливается к семейной жизни и пытается честным трудом зарабатывать в сфере бизнеса, тайные лаборатории Арктики оказываются украденными. Анти-Злодейская лига решает, что она нуждается в помощи Грю и его новобранцев в расследовании.

Продолжительность: 01:37:58
Формат: avi
Видео: XviD, 720x384, 2260 kbps
Аудио #1: русский, дублированный [лицензия], AC3 5.1, 448 kbps
Аудио #2: английский, оригинал, AC3 5.1, 448 kbps
Субтитры #1: внешние, SRT, русский
Субтитры #2: внешние, SRT, русский
Субтитры #3: внешние, SRT, английский

Код:

General
Complete name                    : D:\Video\Movies\Releases\Despicable.Me.2.2013.BDRip.XviD.AC3.Rus.D.Eng.O.HQ.Underverse.avi
Format                           : AVI
Format/Info                      : Audio Video Interleave
Format profile                   : OpenDML
File size                        : 2.17 GiB
Duration                         : 1h 37mn
Overall bit rate                 : 3 174 Kbps
Writing application              : VirtualDubMod 1.5.10.2 (build 2540/release)
Writing library                  : VirtualDubMod build 2540/release

Video
ID                               : 0
Format                           : MPEG-4 Visual
Format profile                   : Streaming Video@L1
Format settings, BVOP            : Yes
Format settings, QPel            : No
Format settings, GMC             : No warppoints
Format settings, Matrix          : Custom
Muxing mode                      : Packed bitstream
Codec ID                         : XVID
Codec ID/Hint                    : XviD
Duration                         : 1h 37mn
Bit rate                         : 2 260 Kbps
Width                            : 720 pixels
Height                           : 384 pixels
Display aspect ratio             : 1.875
Frame rate                       : 23.976 fps
Resolution                       : 24 bits
Colorimetry                      : 4:2:0
Scan type                        : Progressive
Bits/(Pixel*Frame)               : 0.341
Stream size                      : 1.55 GiB (71%)
Writing library                  : XviD 64

Audio #1
ID                               : 1
Format                           : AC-3
Format/Info                      : Audio Coding 3
Codec ID                         : 2000
Duration                         : 1h 37mn
Bit rate mode                    : Constant
Bit rate                         : 448 Kbps
Channel(s)                       : 6 channels
Channel positions                : Front: L C R, Surround: L R, LFE
Sampling rate                    : 48.0 KHz
Stream size                      : 314 MiB (14%)
Alignment                        : Split accross interleaves
Interleave, duration             : 42 ms (1.00 video frame)
Interleave, preload duration     : 500 ms
Title                            : Despicable.Me.2.2013.Rus.Dub.AC3.5.1.448.kbps.HQ.Underverse

Audio #2
ID                               : 2
Format                           : AC-3
Format/Info                      : Audio Coding 3
Codec ID                         : 2000
Duration                         : 1h 37mn
Bit rate mode                    : Constant
Bit rate                         : 448 Kbps
Channel(s)                       : 6 channels
Channel positions                : Front: L C R, Surround: L R, LFE
Sampling rate                    : 48.0 KHz
Stream size                      : 314 MiB (14%)
Alignment                        : Split accross interleaves
Interleave, duration             : 42 ms (1.00 video frame)
Interleave, preload duration     : 500 ms
Title                            : Despicable.Me.2.2013.Eng.O.AC3.5.1.448.kbps.HQ.Underverse

Семпл: http://multi-up.com/927764

Релиз группы:

pic pic pic
Для увеличения картинки щелкните мышкой по превью

Этот торрент доступен для скачивания без регистрации. Перед тем, как его скачать, прочтите, пожалуйста Пользовательское соглашение, а также как можно дольше оставайтесь на раздаче! Также вы можете выкладывать этот торрент или ссылку на него на других интернет-ресурсах, в том числе на торрент трекерах. Для получение более подробной информации о релизе, а также для того, чтобы поблагодарить релизера, вам необходимо зарегистрироваться.

[underverse.su].t33570.torrent
Трекер: Зарегистрирован   [ 29.11.2013 09:13 ]   [ торрент доступен для скачивания без регистрации ]

Статус: проверено (by Паукан at 29.11.2013 15:45)
Поблагодарили: 5 человек
Тип торрента: публичный - доступные источники с открытых трекеров: 
Размер: 2,17 GB (занимает 1/2 DVDR, для записи нужно 1 болванка DVDR/RW)
 
 
Похожие темы
Форум Тема Автор Торрент Отв. Посл. сооб.
Мультфильмы HQ Гадкий Я 2: Мини-фильмы. Миньоны / Despicable Me 2: Mini-Movies. Minions (Пьер Коффин, Крис Рено) [2013 г., Короткометражка, Мультипликация, BDRip] Original + Sub (Rus) Печаль'ka
4 | 0

0 | 2193

60

25.10.2013 16:05

Зарубежные мультфильмы Гадкий я 2 / Despicable Me 2 (Пьер Соффин, Крис Рено) [2013 г., мультфильм, комедия, криминал, семейный, HDRip] Dub 90ytr90
2 | 0

0 | 2118

140

19.10.2013 11:33

Зарубежные мультфильмы Гадкий я 2 / Despicable Me 2 (Пьер Соффин, Крис Рено) [2013 г., мультфильм, фантастика, комедия, криминал, приключения, семейный, BDRip-AVC] Dub + Original + Sub (Rus, Eng) 90ytr90
5 | 0

0 | 702

41

19.10.2013 16:45

Зарубежные мультфильмы Гадкий я 2 / Despicable Me 2 (Пьер Соффин, Крис Рено) [2013 г., мультфильм, фантастика, комедия, криминал, приключения, семейный, BDRip-AVC] Dub + Original (Eng) + Sub (Rus, Eng) 90ytr90
581 | 10

0 | 741

28

08.05.2014 15:48

Короткометражные мультфильмы Гадкий Я 2: Мини-фильмы. Миньоны / Despicable Me 2: Mini-Movies. Minions (Пьер Коффин, Крис Рено) [2013 г., короткометражка, мультипликация, BDRip 720p] Печаль'ka
4 | 0

0 | 2627

100

24.10.2013 08:26

Мультфильмы [DVD / HDDVD / BD / Remux] Гадкий я 2 / Despicable Me 2 (Пьер Соффин, Крис Рено) [2013 г., мультфильм, комедия, криминал, семейный, DVD9] [лицензия] 90ytr90
0 | 0

0 | 1902

13

19.10.2013 07:03

Мультфильмы [HDDVDRip / BDRip / WEB-DL / HDTV 1080/720р] Гадкий я 2 / Despicable Me 2 (Пьер Соффин, Крис Рено) [2013 г., мультфильм, фантастика, комедия, криминал, приключения, семейный, BDRip 720p] Dub + Original + Sub (Rus, Eng) 90ytr90
5 | 0

0 | 703

33

19.10.2013 11:45

Мультфильмы [HDDVDRip / BDRip / WEB-DL / HDTV 1080/720р] Гадкий я 2 / Despicable Me 2 (Пьер Соффин, Крис Рено) [2013 г., мультфильм, фантастика, комедия, криминал, приключения, семейный, BDRip 1080p] Dub + Original + Sub (Rom) 90ytr90
0 | 1

0 | 748

29

19.10.2013 12:53

Мультфильмы [HDDVDRip / BDRip / WEB-DL / HDTV 1080/720р] Гадкий я 2 / Despicable Me 2 (Пьер Соффин, Крис Рено) [2013 г., мультфильм, фантастика, комедия, криминал, приключения, семейный, BDRip 1080p] Dub + Original + Sub (Rus, Eng) 90ytr90
57 | 4

0 | 779

32

20.10.2013 06:13



Последний раз редактировалось: HQ Underverse (29.11.2013 11:49), всего редактировалось 2 раз(а)

27-Ноя-2013 23:18

Топик был перенесен из форума Мультфильмы HQ в форум Релизерская каптерка


HQ Underverse
 

29-Ноя-2013 11:32

Топик был перенесен из форума Релизерская каптерка в форум Мультфильмы HQ


gari
 

Яндекс.Метрика powered by Sphinx


В Н И М А Н И Е
Сайт не распространяет и не хранит электронные версии произведений, а лишь бесплатно и без коммерческой выгоды (не требуя взамен платы,
SMS и т.д.) предоставляет доступ к создаваемому пользователями каталогу ссылок на торрент-файлы, которые содержат только списки хеш-сумм.
Убедительная просьба с жалобами обращаться напрямую к пользователю, разместившему торрент файл.

Вверх