Loading...
Error

Майор полиции / Серии: 1-16 (16) (Артём Антонов) [2013 г., Детектив, SatRip]

Статистика раздачи
Размер:  8,1 GB   |    Зарегистрирован:  3 года   |    Скачан:  16 раз

Полного источника не было: 3 месяца 8 дней

Сидов:  0  |  0 KB/s  ]   Личеров:  0  |  0 KB/s  ]

* - сиды/пиры с внешних источников

   
 
Автор Сообщение

nemos Пол:Муж

27-Ноя-2013 19:50

Майор полиции


Год выпуска: 2013
Жанр: Детектив
Страна: Россия
Режиссер: Артём Антонов
В ролях: Андрей Ильин, Анна Банщикова, Дмитрий Блохин, Ольга Калмыкова, Елизавета Кутузова, Юрис Лауциньш, Инна Степанова, Валерий Дьяченко, Татьяна Иванова, Елизавета Белоусова, Александр Стекольников, Надежда Некрасова (II), Яков Петров, Кирилл Жандаров, Олег Жданов, Аркадий Коваль, Дмитрий Поднозов, Лариса Саванкова, Сергей Цепов, Александр Ильин, Александр Ильин (младший), Владимир Богданов, Леонид Тимцуник, Роберт Вааб, Светлана Щедрина, Анна Пескова, Иван Дубровский, Вера Тран, Никита Морозов, Анна Геллер, Наталья Высочанская, Дмитрий Кочкин, Василий Зинькевич, Вячеслав Карпов, Роман Куропов
Сюжет фильма:
Честный и принципиальный майор милиции Андрей Камышин из провинциального городка Тишинск кому-то очень сильно мешал. Ему «пришили» дело, посадили на три года, а потом, для верности, упрятали в психиатрическую больницу. Спустя время приговор был пересмотрен и отменен, а Андрей Камышин реабилитирован. За годы принудительной изоляции майор практически утратил связь с семьей. Ему предстоит начать жизнь сначала, но легко ли это, когда тебе сорок пять? После долгих сомнений Камышин возвращается на службу в полицию и соглашается стать заместителем начальника УВД. Он собирает команду и ставит перед собой чёткую цель - вытащить на свет корни криминала, опутавшего город.


Качество видео: SatRip

Продолжительность: 00:44:28серия
Формат: AVI
Видео: XviD, 704x368, 1439 kbps
Аудио: русский, MP3 2.0, 192 kbps

Код:

E:\Фильмы (роздача)\Майор полиции (2013)\Майор полиции.(16.seriya).2013.XviD.SATRip.by.simka.avi
   General
      Complete name : E:\Фильмы (роздача)\Майор полиции (2013)\Майор полиции.(16.seriya).2013.XviD.SATRip.by.simka.avi
      Format : AVI
      Format/Info : Audio Video Interleave
      File size : 510 MiB
      Duration : 43mn 28s
      Overall bit rate : 1 641 Kbps
      Writing application : VirtualDubModRus 1.5.10.2 (build 2542/release)
      Writing library : VirtualDubMod build 2542/release
   Video #0
      ID : 0
      Format : MPEG-4 Visual
      Format profile : Advanced Simple@L5
      Format settings, BVOP : 1
      Format settings, QPel : No
      Format settings, GMC : No warppoints
      Format settings, Matrix : Default (H.263)
      Codec ID : XVID
      Codec ID/Hint : XviD
      Duration : 43mn 28s
      Bit rate : 1 439 Kbps
      Width : 704 pixels
      Height : 368 pixels
      Display aspect ratio : 1.913
      Frame rate : 25.000 fps
      Color space : YUV
      Chroma subsampling : 4:2:0
      Bit depth : 8 bits
      Scan type : Progressive
      Compression mode : Lossy
      Bits/(Pixel*Frame) : 0.222
      Stream size : 447 MiB (88%)
      Writing library : XviD 1.2.1 (UTC 2008-12-04)
   Audio #1
      ID : 1
      Format : MPEG Audio
      Format version : Version 1
      Format profile : Layer 3
      Mode : Joint stereo
      Mode extension : MS Stereo
      Codec ID : 55
      Codec ID/Hint : MP3
      Duration : 43mn 28s
      Bit rate mode : Constant
      Bit rate : 192 Kbps
      Channel(s) : 2 channels
      Sampling rate : 48.0 KHz
      Compression mode : Lossy
      Stream size : 59.7 MiB (12%)
      Alignment : Aligned on interleaves
      Interleave, duration : 40 ms (1.00 video frame)
      Interleave, preload duration : 504 ms
      Writing library : LAME3.99r
      Encoding settings : -m j -V 4 -q 2 -lowpass 18.6 -b 192
Семпл: http://multi-up.com/927432

picpicpicpicpicpic
Для увеличения картинки щелкните мышкой по превью

Этот торрент недоступен для скачивания без регистрации, однако доступен по публичной magnet-ссылке (источники с публичных трекеров). Перед использованием ссылки прочтите, пожалуйста Пользовательское соглашение, а также как можно дольше оставайтесь на раздаче! Для того, чтобы скачать сам торрент-файл (который видит больше источников), а также для того, чтобы поблагодарить релизера, вам необходимо зарегистрироваться. Если регистрироваться лень - вы можете также попробовать скачать релиз по нашим партнерским ссылкам ниже.

[underverse.su].t33865.torrent
Трекер: Зарегистрирован   [ 06.12.2013 15:14 ]  

Статус: проверено (by Jimmy at 07.12.2013 06:30)
Поблагодарили: 4 человека
Тип торрента: публичный - доступные источники с открытых трекеров: 
Размер: 8,1 GB (занимает 1,85 DVDR, для записи нужно 2 болванки DVDR/RW)
 
 


Последний раз редактировалось: nemos (06.11.2014 09:38), всего редактировалось 7 раз(а)

nemos Пол:Муж

28-Ноя-2013 16:19

Торрент обновлён! Добавлены серии: 15-16

Яндекс.Метрика powered by Sphinx


В Н И М А Н И Е
Сайт не распространяет и не хранит электронные версии произведений, а лишь бесплатно и без коммерческой выгоды (не требуя взамен платы,
SMS и т.д.) предоставляет доступ к создаваемому пользователями каталогу ссылок на торрент-файлы, которые содержат только списки хеш-сумм.
Убедительная просьба с жалобами обращаться напрямую к пользователю, разместившему торрент файл.

Вверх