Loading...
Error

Агент / Серии: 1-16 из 16 (Дмитрий Кузьмин, Георгий Гаврилов) [2013 г., детектив, приключения, криминальный, DVDRip]

Статистика раздачи
Размер:  10,94 GB   |    Зарегистрирован:  3 года   |    Скачан:  13 раз

Полного источника не было: 1 год 9 месяцев

Сидов:  0  |  0 KB/s  ]   Личеров:  0  |  0 KB/s  ]

* - сиды/пиры с внешних источников

   
 
Автор Сообщение

konopic Пол:Муж

26-Ноя-2013 10:14

Агент


Год выпуска: 2013
Жанр: детектив, приключения, криминальный
Страна: Россия
Режиссер: Дмитрий Кузьмин, Георгий Гаврилов
В ролях: Алексей Серебряков, Юрий Беляев, Агния Дитковските, Ольга Сумская, Ада Роговцева, Татьяна Лютаева, Александр Катунин, Ирина Бразговка, Владимир Башкиров, Илья Шакунов...
Сюжет фильма:
Секретному агенту спецслужб Андрею Козыреву по прозвищу Американец, несправедливо осужденному за убийство, однажды выпадает шанс изменить свою жизнь. Он совершает дерзкий побег из колонии, чтобы разыскать своего врага, доказать свою невиновность и спасти мир от нового смертельного вируса, грозящего гибелью миллионам людей.


Качество видео: DVDRip (2 x DVD9 R5)

Продолжительность: 16 х~ 00:45 мин.
Формат: AVI
Видео: XviD, 688x368 (1.85:1), 25.000 fps, ~ 2000 kbps avg, 0.316 bit/pixel
Аудио: русский, AC3 2.0, 192 kbps

Код:

Полное имя : Agent.2013.O.DVDRip_[New-Team]_by_avproh�1.avi
Формат : AVI
Формат/Информация : Audio Video Interleave
Размер файла : 1,36 Гбайт
Продолжительность : 1 ч. 28 м.
Общий поток : 2201 Кбит/сек
Программа кодирования : VirtualDubModRus 1.5.10.2 (build 2542/release)
Библиотека кодирования : VirtualDubMod build 2542/release

Видео
Идентификатор : 0
Формат : MPEG-4 Visual
Профиль формата : Advanced Simple@L5
Параметр BVOP формата : 1
Параметр QPel формата : Нет
Параметр GMC формата : Без точки перехода
Параметр матрицы формата : Выборочная
Идентификатор кодека : XVID
Идентификатор кодека/Подсказка : XviD
Продолжительность : 1 ч. 28 м.
Битрейт : 2000 Кбит/сек
Ширина : 688 пикселей
Высота : 368 пикселей
Соотношение сторон : 1,85:1
Частота кадров : 25,000 кадров/сек
Цветовое пространство : YUV
Субдискретизация насыщенности : 4:2:0
Битовая глубина : 8 бит
Тип развёртки : Прогрессивная
Метод сжатия : С потерями
Бит/(Пиксели*Кадры) : 0.316
Размер потока : 1,23 Гбайт (91%)
Библиотека кодирования : XviD 73

Аудио
Идентификатор : 1
Формат : AC-3
Формат/Информация : Audio Coding 3
Расширение режима : CM (complete main)
Параметр Endianness формата : Big
Идентификатор кодека : 2000
Продолжительность : 1 ч. 28 м.
Вид битрейта : Постоянный
Битрейт : 192 Кбит/сек
Каналы : 2 канала
Расположение каналов : Front: L R
Частота : 48,0 КГц
Битовая глубина : 16 бит
Метод сжатия : С потерями
Размер потока : 121 Мбайт (9%)
Выравнивание : Разделение по промежуткам
Продолжительность промежутка : 40 мс. (1,00 видеокадр)
Время предзагрузки промежутка : 500 мс.
Примечание: В файле 01.avi находятся 1-я и 2-я серии фильма.

Релиз:

picpicpicpic
Для увеличения картинки щелкните мышкой по превью

Этот торрент недоступен для скачивания без регистрации, однако доступен по публичной magnet-ссылке (источники с публичных трекеров). Перед использованием ссылки прочтите, пожалуйста Пользовательское соглашение, а также как можно дольше оставайтесь на раздаче! Для того, чтобы скачать сам торрент-файл (который видит больше источников), а также для того, чтобы поблагодарить релизера, вам необходимо зарегистрироваться. Если регистрироваться лень - вы можете также попробовать скачать релиз по нашим партнерским ссылкам ниже.

[underverse.su].t33493.torrent
Трекер: Зарегистрирован   [ 26.11.2013 10:14 ]  

Статус: проверено (by 90ytr90 at 26.11.2013 10:46)
Поблагодарили: 1 человек
Тип торрента: публичный - доступные источники с открытых трекеров: 
Размер: 10,94 GB (занимает 2,5 DVDR, для записи нужно 3 болванки DVDR/RW)
 
 
Похожие темы
Форум Тема Автор Торрент Отв. Посл. сооб.
xUSSR сериалы Агент / Серии: 1-16 [16] (Георгий Гаврилов, Дмитрий Кузьмин) [2013 г., детектив, приключения, SatRip] nemos
0 | 1

2 | 996

39

31.05.2013 00:26


Яндекс.Метрика powered by Sphinx


В Н И М А Н И Е
Сайт не распространяет и не хранит электронные версии произведений, а лишь бесплатно и без коммерческой выгоды (не требуя взамен платы,
SMS и т.д.) предоставляет доступ к создаваемому пользователями каталогу ссылок на торрент-файлы, которые содержат только списки хеш-сумм.
Убедительная просьба с жалобами обращаться напрямую к пользователю, разместившему торрент файл.

Вверх