Loading...
Error

Звездный путь / Star Trek (Джей Джей Абрамс / J.J. Abrams) [2009 г., фантастика, боевик, приключения, BDRip] Dub HQ Underverse

Статистика раздачи
Размер:  2,18 GB   |    Зарегистрирован:  3 года 8 месяцев   |    Скачан:  42 раза
Сидов:  1  |  0 KB/s  ]   Личеров:  0  |  0 KB/s  ]

* - сиды/пиры с внешних источников

   
 
Автор Сообщение

HQ Underverse 

26-Ноя-2013 00:22

Звездный путь / Star Trek


Год выпуска: 2009
Жанр: фантастика, боевик, приключения
Страна: США , Германия
Режиссер: Джей Джей Абрамс / J.J. Abrams
В ролях: Крис Пайн, Закари Куинто, Леонард Нимой, Эрик Бана, Брюс Гринвуд, Карл Урбан, Зои Салдана, Саймон Пегг, Джон Чо, Антон Ельчин, Вайнона Райдер, Крис Хемсворт
Сюжет фильма:
Когда Нерон с планеты Ромул приходит из будущего, чтобы отомстить Федерации, конкуренты Кирк и Спок должны объединиться, чтобы не дать ему разрушить все, что им дорого. Во время этого "будоражащего" путешествия, наполненного "эффектными боями", юмором и космическими угрозами, новоиспеченные члены команды военного корабля "Энтерпрайз" смело встретятся лицом к лицу с невообразимыми опасностями.

  • Мировая премьера: 7 апреля 2009
  • Российская премьера: 7 мая 2009


Качество видео: BDRip

Продолжительность: 02:06:50
Формат: avi
Видео: XviD, 720x304, 1998 kbps
Аудио: русский, дублированный [лицензия], AC3 5.1, 448 kbps

Код:

General
Complete name                    : D:\Video\Movies\Releases\Star.Trek.2009.BDRip.XviD.AC3.Rus.D.HQ.Underverse.avi
Format                           : AVI
Format/Info                      : Audio Video Interleave
Format profile                   : OpenDML
File size                        : 2.18 GiB
Duration                         : 2h 6mn
Overall bit rate                 : 2 458 Kbps
Writing application              : VirtualDubMod 1.5.10.2 (build 2540/release)
Writing library                  : VirtualDubMod build 2540/release

Video
ID                               : 0
Format                           : MPEG-4 Visual
Format profile                   : Streaming Video@L1
Format settings, BVOP            : Yes
Format settings, QPel            : No
Format settings, GMC             : No warppoints
Format settings, Matrix          : Custom
Muxing mode                      : Packed bitstream
Codec ID                         : XVID
Codec ID/Hint                    : XviD
Duration                         : 2h 6mn
Bit rate                         : 1 998 Kbps
Width                            : 720 pixels
Height                           : 304 pixels
Display aspect ratio             : 2.35
Frame rate                       : 23.976 fps
Resolution                       : 24 bits
Colorimetry                      : 4:2:0
Scan type                        : Progressive
Bits/(Pixel*Frame)               : 0.381
Stream size                      : 1.77 GiB (81%)
Writing library                  : XviD 64

Audio
ID                               : 1
Format                           : AC-3
Format/Info                      : Audio Coding 3
Codec ID                         : 2000
Duration                         : 2h 6mn
Bit rate mode                    : Constant
Bit rate                         : 448 Kbps
Channel(s)                       : 6 channels
Channel positions                : Front: L C R, Surround: L R, LFE
Sampling rate                    : 48.0 KHz
Stream size                      : 406 MiB (18%)
Alignment                        : Split accross interleaves
Interleave, duration             : 42 ms (1.00 video frame)
Interleave, preload duration     : 500 ms
Title                            : Star.Trek.2009.Rus.Dub.AC3.5.1.448.kbps.HQ.Underverse

Семпл: http://multi-up.com/926866

Релиз группы:

picpicpic
Для увеличения картинки щелкните мышкой по превью

Этот торрент недоступен для скачивания без регистрации, однако доступен по публичной magnet-ссылке (источники с публичных трекеров). Перед использованием ссылки прочтите, пожалуйста Пользовательское соглашение, а также как можно дольше оставайтесь на раздаче! Для того, чтобы скачать сам торрент-файл (который видит больше источников), а также для того, чтобы поблагодарить релизера, вам необходимо зарегистрироваться. Если регистрироваться лень - вы можете также попробовать скачать релиз по нашим партнерским ссылкам ниже.

[underverse.su].t33483.torrent
Трекер: Зарегистрирован   [ 26.11.2013 00:22 ]  

Статус: проверено (by Паукан at 26.11.2013 08:54)
Поблагодарили: 2 человека
Тип торрента: публичный - доступные источники с открытых трекеров: 
Размер: 2,18 GB (занимает 1/2 DVDR, для записи нужно 1 болванка DVDR/RW)
 
 
Похожие темы
Форум Тема Автор Торрент Отв. Посл. сооб.
Зарубежное кино [DVDRip, Low-Res HDRip, и т.д.] Звездный путь: Фильм / Star Trek: The Motion Picture (Роберт Уайз) [1979 г., фантастика, детектив, приключения, BDRip] MVO (СТС) 90ytr90
2 | 1

0 | 1394

24

05.05.2013 10:27

Зарубежное кино [DVDRip, Low-Res HDRip, и т.д.] Звездный путь 2: Гнев Хана / Star Trek: The Wrath of Khan (Николас Мейер) [1982 г., фантастика, боевик, триллер, приключения, BDRip] MVO (SDI Media) 90ytr90
7 | 0

0 | 1184

26

05.05.2013 10:37

Зарубежное кино [DVDRip, Low-Res HDRip, и т.д.] Звездный путь 3: В поисках Спока / Star Trek III: The Search for Spock (Леонард Нимой) [1984 г., фантастика, боевик, триллер, приключения, BDRip] MVO (SDI Media) 90ytr90
3 | 0

0 | 1585

23

05.05.2013 10:50

Зарубежное кино [DVDRip, Low-Res HDRip, и т.д.] Звездный путь 4: Дорога домой / Star Trek IV: The Voyage Home (Леонард Нимой) [1986 г., фантастика, комедия, приключения, BDRip] MVO (SDI Media) 90ytr90
2 | 1

0 | 1270

21

05.05.2013 11:09

Зарубежное кино [DVDRip, Low-Res HDRip, и т.д.] Звездный путь 5: Последний рубеж / Star Trek V: The Final Frontier (Уильям Шетнер) [1989 г., фантастика, боевик, триллер, приключения, BDRip] MVO (SDI Media) 90ytr90
3 | 0

0 | 1174

23

05.05.2013 11:17

Зарубежное кино [DVDRip, Low-Res HDRip, и т.д.] Звездный путь 6: Неоткрытая страна / Star Trek VI: The Undiscovered Country (Николас Мейер) [1991 г., фантастика, боевик, триллер, приключения, BDRip] MVO (SDI Media) 90ytr90
5 | 0

0 | 1168

25

05.05.2013 11:24

Зарубежное кино [DVDRip, Low-Res HDRip, и т.д.] Звездный путь 7: Поколения / Star Trek: Generations (Дэвид Карсон) [1994 г., фантастика, боевик, триллер, приключения, BDRip] MVO (Премьер Видео) 90ytr90
3 | 0

0 | 1176

27

05.05.2013 11:34

Зарубежное кино [DVDRip, Low-Res HDRip, и т.д.] Звездный путь 8: Первый контакт / Star Trek: First Contact (Джонатан Фрейкс) [1996 г., фантастика, боевик, триллер, приключения, BDRip] MVO (Премьер Видео) 90ytr90
1 | 1

0 | 1455

27

05.05.2013 11:43

Зарубежное кино [DVDRip, Low-Res HDRip, и т.д.] Звездный путь 9: Восстание / Star Trek: Insurrection (Джонатан Фрейкс) [1998 г., фантастика, боевик, триллер, приключения, BDRip] MVO (Премьер Видео) 90ytr90
2 | 1

0 | 1146

29

05.05.2013 11:55

Зарубежное кино [DVDRip, Low-Res HDRip, и т.д.] Звездный путь 10: Возмездие / Star Trek: Nemesis (Стюарт Бейрд) [2002 г., фантастика, боевик, триллер, BDRip] MVO (SDI Media) 90ytr90
5 | 0

0 | 1328

36

06.05.2013 16:50


Яндекс.Метрика powered by Sphinx


В Н И М А Н И Е
Сайт не распространяет и не хранит электронные версии произведений, а лишь бесплатно и без коммерческой выгоды (не требуя взамен платы,
SMS и т.д.) предоставляет доступ к создаваемому пользователями каталогу ссылок на торрент-файлы, которые содержат только списки хеш-сумм.
Убедительная просьба с жалобами обращаться напрямую к пользователю, разместившему торрент файл.

Вверх