Loading...
Error

Бесподобный мистер Фокс / Fantastic Mr. Fox (Уэс Андерсон / Wes Anderson) [2009 г., мультфильм, комедия, приключения, семейный, BDRip-AVC] Dub + Original + MVO

Статистика раздачи
Размер:  2,2 GB   |    Зарегистрирован:  3 года 11 месяцев   |    Скачан:  18 раз

Полного источника не было: 9 месяцев

Сидов:  0  |  0 KB/s  ]   Личеров:  0  |  0 KB/s  ]

* - сиды/пиры с внешних источников

   
 
Автор Сообщение

garry Пол:Муж

24-Ноя-2013 12:25

Бесподобный мистер Фокс / Fantastic Mr. Fox


Год выпуска: 2009
Жанр: мультфильм, комедия, приключения, семейный
Страна: США
Режиссер: Уэс Андерсон / Wes Anderson
Роли озвучивали: Джордж Клуни, Мэрил Стрип, Джейсон Шварцман, Билл Мюррэй, Уоллес Володарски, Эрик Чейз Андерсон, Майкл Гэмбон, Уиллем Дефо, Оуэн Уилсон, Джарвис Кокер
Сюжет фильма:
Трое разъяренных фермеров, "известных" в своей округе, уставшие от постоянных нападок хитрого лиса на их курятники, гусятники, индюшники - готовятся уничтожить своего врага и его «хитрое» семейство...
/
Качество видео: BDRip-AVC

Продолжительность: 01:26:44
Формат: MKV
Видео: x264, 1264x684, 2280 kbps
Аудио #1: русский, дублированный [лицензия], AC3 5.1, 448 kbps
Аудио #2: английский, оригинал, AC3 5.1, 448 kbps
Аудио #3: русский, многоголосый закадровый [профессиональный], AC3 5.1, 448 kbps (отдельно)
Субтитры #1: тип: вшитые отключаемые, русский, формат: SRT
Субтитры #2: тип: вшитые отключаемые, английский, формат: SRT
Субтитры #3: тип: вшитые отключаемые, французский, формат: SRT
Субтитры #4: тип: вшитые отключаемые, испанский, формат: SRT
Субтитры #5: тип: вшитые отключаемые, португальский, формат: SRT

Код:

General
Complete name                    : Fantastic.Mr.Fox.2009[tRuAVC].mkv
Format                           : Matroska
File size                        : 1.93 GiB
Duration                         : 1h 26mn
Overall bit rate                 : 3 178 Kbps
Encoded date                     : UTC 2010-09-08 18:16:37
Writing application              : mkvmerge v4.3.0 ('Escape from the Island') built on Sep 5 2010 10:30:51
Writing library                  : libebml v1.0.0 + libmatroska v1.0.0

Video
ID                               : 1
Format                           : AVC
Format/Info                      : Advanced Video Codec
Format profile                   : High@L4.0
Format settings, CABAC           : Yes
Format settings, ReFrames        : 9 frames
Muxing mode                      : Container profile=Unknown@4.0
Codec ID                         : V_MPEG4/ISO/AVC
Duration                         : 1h 26mn
Bit rate                         : 2 280 Kbps
Width                            : 1 264 pixels
Height                           : 684 pixels
Display aspect ratio             : 16:9
Frame rate                       : 23.976 fps
Color space                      : YUV
Chroma subsampling               : 4:2:0
Bit depth                        : 8 bits
Scan type                        : Progressive
Bits/(Pixel*Frame)               : 0.110
Stream size                      : 1.34 GiB (70%)
Title                            : NTSC, 1264x684 (16/9), BDRip - tRuAVC
Writing library                  : x264 core 104 r1677kMod 19df41a
Encoding settings                : cabac=1 / ref=9 / deblock=1:-1:-1 / analyse=0x3:0x133 / me=umh / subme=10 / psy=1 / psy_rd=0.60:0.00 / mixed_ref=1 / me_range=32 / chroma_me=1 / trellis=2 / 8x8dct=1 / cqm=0 / deadzone=21,11 / fast_pskip=0 / chroma_qp_offset=-2 / threads=1 / sliced_threads=0 / nr=0 / decimate=1 / interlaced=0 / constrained_intra=0 / bframes=7 / b_pyramid=2 / b_adapt=2 / b_bias=0 / direct=1 / weightb=1 / open_gop=0 / weightp=2 / keyint=250 / keyint_min=23 / scenecut=40 / intra_refresh=0 / rc_lookahead=60 / rc=crf / mbtree=1 / crf=18.5000 / qcomp=0.80 / qpmin=10 / qpmax=51 / qpstep=4 / ip_ratio=1.40 / aq=2:1.00
Matrix coefficients              : BT.709-5, BT.1361, IEC 61966-2-4 709, SMPTE RP177
Language                         : English

Audio #1
ID                               : 2
Format                           : AC-3
Format/Info                      : Audio Coding 3
Mode extension                   : CM (complete main)
Codec ID                         : A_AC3
Duration                         : 1h 26mn
Bit rate mode                    : Constant
Bit rate                         : 448 Kbps
Channel(s)                       : 6 channels
Channel positions                : Front: L C R, Side: L R, LFE
Sampling rate                    : 48.0 KHz
Bit depth                        : 16 bits
Stream size                      : 278 MiB (14%)
Title                            : AC3, 6 ch, 48 kHz, 448 kbps, Dubbing
Language                         : Russian

Audio #2
ID                               : 3
Format                           : AC-3
Format/Info                      : Audio Coding 3
Mode extension                   : CM (complete main)
Codec ID                         : A_AC3
Duration                         : 1h 26mn
Bit rate mode                    : Constant
Bit rate                         : 448 Kbps
Channel(s)                       : 6 channels
Channel positions                : Front: L C R, Side: L R, LFE
Sampling rate                    : 48.0 KHz
Bit depth                        : 16 bits
Stream size                      : 278 MiB (14%)
Title                            : AC3, 6 ch, 48 kHz, 448 kbps, Original
Language                         : English

Text #1
ID                               : 4
Format                           : UTF-8
Codec ID                         : S_TEXT/UTF8
Codec ID/Info                    : UTF-8 Plain Text
Title                            : SRT
Language                         : Russian

Text #2
ID                               : 5
Format                           : UTF-8
Codec ID                         : S_TEXT/UTF8
Codec ID/Info                    : UTF-8 Plain Text
Title                            : SRT
Language                         : English

Text #3
ID                               : 6
Format                           : UTF-8
Codec ID                         : S_TEXT/UTF8
Codec ID/Info                    : UTF-8 Plain Text
Title                            : SRT
Language                         : French

Text #4
ID                               : 7
Format                           : UTF-8
Codec ID                         : S_TEXT/UTF8
Codec ID/Info                    : UTF-8 Plain Text
Title                            : SRT
Language                         : Spanish

Text #5
ID                               : 8
Format                           : UTF-8
Codec ID                         : S_TEXT/UTF8
Codec ID/Info                    : UTF-8 Plain Text
Title                            : SRT
Language                         : Portuguese

Menu
00:00:00.000                     : en:1. Main Title / Trapped!
00:04:30.353                     : en:2. Living in a Hole
00:06:35.729                     : en:3. Just Buy the Tree
00:09:59.974                     : en:4. Unwelcome Houseguest
00:14:35.875                     : en:5. One Last Big Job
00:17:00.811                     : en:6. Master Plan
00:21:22.072                     : en:7. Whack-Bat
00:23:56.894                     : en:8. Bean's Secret Cider Cellar
00:30:15.605                     : en:9. Tails Don't Grow Back
00:32:31.950                     : en:10. Dig!
00:36:20.011                     : en:11. No Ticks, No Lice
00:38:27.055                     : en:12. The Siege Begins
00:41:56.556                     : en:13. Triple Header
00:45:30.770                     : en:14. Ash's Brilliant Brainstorm
00:49:23.210                     : en:15. Apple Juice Flood
00:51:50.899                     : en:16. Waving the White Flag
00:54:45.365                     : en:17. Redemption
00:58:33.301                     : en:18. Going for Broke
01:01:19.342                     : en:19. On Fire
01:05:44.941                     : en:20. Rescue Mission
01:11:15.730                     : en:21. Less Than a Slice of Bread
01:14:22.917                     : en:22. What a Beautiful Creature
01:15:54.925                     : en:23. A Good Toast
01:20:00.462                     : en:24. Let Her Dance / End Titles
Релиз группы:

picpicpic
Для увеличения картинки щелкните мышкой по превью

Этот торрент недоступен для скачивания без регистрации, однако доступен по публичной magnet-ссылке (источники с публичных трекеров). Перед использованием ссылки прочтите, пожалуйста Пользовательское соглашение, а также как можно дольше оставайтесь на раздаче! Для того, чтобы скачать сам торрент-файл (который видит больше источников), а также для того, чтобы поблагодарить релизера, вам необходимо зарегистрироваться. Если регистрироваться лень - вы можете также попробовать скачать релиз по нашим партнерским ссылкам ниже.

[underverse.su].t33423.torrent
Трекер: Зарегистрирован   [ 24.11.2013 12:25 ]  

Статус: проверено (by 90ytr90 at 24.11.2013 13:27)
Поблагодарили: 1 человек
Тип торрента: публичный - доступные источники с открытых трекеров: 
Размер: 2,2 GB (занимает 0,5 DVDR, для записи нужно 1 болванка DVDR/RW)
 
 
Похожие темы
Форум Тема Автор Торрент Отв. Посл. сооб.
Зарубежные мультфильмы Бесподобный мистер Фокс / Fantastic Mr. Fox (Уэс Андерсон / Wes Anderson) [2009 г., мультфильм, комедия, приключения, семейный, BDRip] Dub garry
10 | 0

0 | 506

8

24.11.2013 12:13


Яндекс.Метрика powered by Sphinx


В Н И М А Н И Е
Сайт не распространяет и не хранит электронные версии произведений, а лишь бесплатно и без коммерческой выгоды (не требуя взамен платы,
SMS и т.д.) предоставляет доступ к создаваемому пользователями каталогу ссылок на торрент-файлы, которые содержат только списки хеш-сумм.
Убедительная просьба с жалобами обращаться напрямую к пользователю, разместившему торрент файл.

Вверх