Loading...
Error

Последняя минута 2 / Серии 1-6 (20) (Владимир Нахабцев (мл.), Денис Червяков) [2013 г., триллер, драма, SatRip] (Обновляемая)

Статистика раздачи
Размер:  3,36 GB   |    Зарегистрирован:  3 года   |    Скачан:  3 раза

Полного источника не было: 2 года

Сидов:  0  |  0 KB/s  ]   Личеров:  0  |  0 KB/s  ]

* - сиды/пиры с внешних источников

   
 
Автор Сообщение

nemos Пол:Муж

21-Ноя-2013 17:14

Последняя минута 2


Год выпуска: 2013
Жанр: Триллер, драма
Страна: Россия
Режиссер: Владимир Нахабцев (мл.), Денис Червяков
В ролях: Михаил Скачков, Алексей Костерев, Юрий Нифонтов, Александра Живова, Александр Нестеров, Олег Морозов, Лана Щербакова, Роман Индык, Игорь Воробьёв, Ирина Баринова, Евгения Абрамова, Наталья Земцова, Павел Абраменков, Максим Щёголев, Артем Кобзев, Дмитрий Комов, Елена Полянская
Сюжет фильма:
Действие каждого эпизода разворачивается на фоне внезапного происшествия, которое круто меняет размеренную жизнь персонажей. В экстремальных ситуациях из темных уголков души высвобождаются демоны, о существовании которых герои даже не подозревают. Именно в этот момент зритель видит настоящего человека без прикрас. Вам кажется, что девушка по соседству живет с настоящим тираном, лучший друг искренен в своих чувствах, а пылкий любовник готов положить к ногам своей женщины весь мир? Они тоже так думают.


Качество видео: SatRip

Продолжительность: 00:41:47 серия
Формат: AVI
Видео: XviD, 704 х 384, 1768 kbps
Аудио: русский, MP3 2.0, 128 kbps

Код:

E:\Фильмы (роздача)\Последняя минута 2.2013.SATRip\Последняя минута 2.01.avi
   General
      Complete name : E:\Фильмы (роздача)\Последняя минута 2.2013.SATRip\Последняя минута 2.01.avi
      Format : AVI
      Format/Info : Audio Video Interleave
      File size : 570 MiB
      Duration : 41mn 47s
      Overall bit rate : 1 906 Kbps
      Writing application : VirtualDubMod 1.5.10.3 (build 2550/release)
      Writing library : VirtualDubMod build 2550/release
      Copyright : Shuriman
   Video #0
      ID : 0
      Format : MPEG-4 Visual
      Format profile : Advanced Simple@L5
      Format settings, BVOP : 2
      Format settings, QPel : No
      Format settings, GMC : No warppoints
      Format settings, Matrix : Default (H.263)
      Muxing mode : Packed bitstream
      Codec ID : XVID
      Codec ID/Hint : XviD
      Duration : 41mn 47s
      Bit rate : 1 768 Kbps
      Width : 704 pixels
      Height : 384 pixels
      Display aspect ratio : 1.85:1
      Frame rate : 25.000 fps
      Color space : YUV
      Chroma subsampling : 4:2:0
      Bit depth : 8 bits
      Scan type : Progressive
      Compression mode : Lossy
      Bits/(Pixel*Frame) : 0.262
      Stream size : 529 MiB (93%)
      Writing library : XviD 64
   Audio #1
      ID : 1
      Format : MPEG Audio
      Format version : Version 1
      Format profile : Layer 3
      Mode : Joint stereo
      Mode extension : MS Stereo
      Codec ID : 55
      Codec ID/Hint : MP3
      Duration : 41mn 47s
      Bit rate mode : Constant
      Bit rate : 128 Kbps
      Channel(s) : 2 channels
      Sampling rate : 48.0 KHz
      Compression mode : Lossy
      Stream size : 38.3 MiB (7%)
      Alignment : Split accross interleaves
      Interleave, duration : 40 ms (1.00 video frame)
      Interleave, preload duration : 500 ms
Семпл: http://multi-up.com/925458

picpicpicpicpicpicpicpicpic
Для увеличения картинки щелкните мышкой по превью

Этот торрент недоступен для скачивания без регистрации, однако доступен по публичной magnet-ссылке (источники с публичных трекеров). Перед использованием ссылки прочтите, пожалуйста Пользовательское соглашение, а также как можно дольше оставайтесь на раздаче! Для того, чтобы скачать сам торрент-файл (который видит больше источников), а также для того, чтобы поблагодарить релизера, вам необходимо зарегистрироваться. Если регистрироваться лень - вы можете также попробовать скачать релиз по нашим партнерским ссылкам ниже.

[underverse.su].t33344.torrent
Трекер: Зарегистрирован   [ 21.11.2013 17:14 ]  

Статус: проверено (by 90ytr90 at 21.11.2013 17:41)
Поблагодарили: 1 человек
Тип торрента: публичный - доступные источники с открытых трекеров: 
Размер: 3,36 GB (занимает 0,77 DVDR, для записи нужно 1 болванка DVDR/RW)
 
 
Похожие темы
Форум Тема Автор Торрент Отв. Посл. сооб.
T Зарубежное кино [DVDRip, Low-Res HDRip, и т.д.] Последняя любовь мистера Моргана / Mr. Morgan's Last Love (Сандра Неттельбек / Sandra Nettelbeck) [2013 г., драма, комедия, BDRip-AVC] Dub (чистый звук) + DVO (Чистохина и Чепусов) + Original (Eng)... 90ytr90
2 | 0

0 | 444

11

23.04.2014 18:16

Зарубежное кино [DVDRip, Low-Res HDRip, и т.д.] Последняя надежда человечества / Against the Dark (Ричард Крудо) [2009 г., ужасы, фантастика, боевик, триллер, DVDRip] Boromir9
0 | 1

1 | 2073

3

19.12.2010 11:58

Зарубежное кино [DVDRip, Low-Res HDRip, и т.д.] Последняя любовь на Земле / Perfect Sense (Дэвид МакКензи) [2011 г., фантастика, драма, мелодрама, HDRip] MVO RG NewCinema
11 | 4

0 | 1243

41

13.11.2012 18:15

Зарубежное кино [DVDRip, Low-Res HDRip, и т.д.] Последняя искра жизни / La chispa de la vida (Алекс де ла Иглесиа) [2011, драма, DVDRip] MVO + Original Spa Garnett
13 | 0

0 | 861

4

10.12.2012 05:23

Зарубежное кино [DVDRip, Low-Res HDRip, и т.д.] Последняя искра жизни / La chispa de la vida (Алекс де ла Иглесиа) [2011, драма, DVDRip] MVO Garnett
30 | 0

1 | 1012

4

12.12.2012 18:06

Зарубежное кино [DVDRip, Low-Res HDRip, и т.д.] Последняя любовь на Земле / Perfect Sense (Дэвид МакКензи) [2011 г., фантастика, драма, мелодрама , BDRip-AVC] MVO Чертёнок
8 | 0

0 | 1364

27

02.02.2013 21:41

Зарубежное кино [DVDRip, Low-Res HDRip, и т.д.] Последняя карета / Последний вагон / The Last Wagon / L'ultima carrozzella (Марио Маттоли) [1943 г., Комедия, DVDRip] VO + Original Чертёнок
0 | 1

0 | 1294

1

23.09.2013 09:54

Зарубежное кино [DVDRip, Low-Res HDRip, и т.д.] Последняя любовь мистера Моргана / Mr. Morgan's Last Love (Сандра Неттельбек) [2013 г., драма, комедия, HDRip] DVO (CasStudio) 90ytr90
1 | 0

1 | 2074

37

22.12.2013 02:15

Зарубежное кино [DVDRip, Low-Res HDRip, и т.д.] Последняя любовь мистера Моргана / Mr. Morgan's Last Love (Сандра Неттельбек) [2013 г., драма, комедия, HDRip] DVO (CasStudio) 90ytr90
0 | 1

0 | 563

15

22.12.2013 06:46

T Зарубежное кино [DVDRip, Low-Res HDRip, и т.д.] Последняя любовь мистера Моргана / Mr. Morgan's Last Love (Сандра Неттельбек / Sandra Nettelbeck) [2013 г., драма, комедия, HDRip] Dub (чистый звук) + Original (Eng) 90ytr90
11 | 0

1 | 561

14

03.07.2014 21:53


Яндекс.Метрика powered by Sphinx


В Н И М А Н И Е
Сайт не распространяет и не хранит электронные версии произведений, а лишь бесплатно и без коммерческой выгоды (не требуя взамен платы,
SMS и т.д.) предоставляет доступ к создаваемому пользователями каталогу ссылок на торрент-файлы, которые содержат только списки хеш-сумм.
Убедительная просьба с жалобами обращаться напрямую к пользователю, разместившему торрент файл.

Вверх