Loading...
Error

Кровавое письмо / Thien Menh Anh Hung (Виктор Ву) [2012 г., боевик, HDRip] DVO [Нтв+]

Статистика раздачи
Размер:  1,45 GB   |    Зарегистрирован:  3 года   |    Скачан:  6 раз

Полного источника не было: 2 года 5 месяцев

Сидов:  0  |  0 KB/s  ]   Личеров:  0  |  0 KB/s  ]

* - сиды/пиры с внешних источников

   
 
Автор Сообщение

Паукан Пол:Муж

21-Ноя-2013 13:37

Кровавое письмо / Thien Menh Anh Hung


Название: Кровавое письмо
Оригинальное название: Thien Menh Anh Hung
Год выхода: 2012
Жанр: боевик
Режиссер: Виктор Ву
В ролях: Хунь Донг, Миду, Ван Транг, Кхуонг Нгок, Минь Тхуан

О фильме:
На глазах ребенка солдаты убивают всю семью. Когда мальчик подрастает и узнает историю своей семьи, он желает только одного — мстить. Но кому? Однако вскоре он узнает о существовании некоего Кровавого письма, которое, возможно, поможет ему…



Страна: Вьетнам
Студия: Saiga Films
Продолжительность: 01:43:08
Перевод: Профессиональный (двухголосый) [Нтв+]

Файл
Кодек: XviD
Качество: HDRip
Видео: 720x304, 1818 kbps, 24,000 fps, 0,346 Bits/(Pixel*Frame)
Звук: AC3, 48 kHz, 2 ch, 192 kbps
Субтитры: Нет

Автор рипа: _Bathory_
General
Complete name : G:Blood.Letter.2012.HDRip._by_Bathory.avi
Format : AVI
Format/Info : Audio Video Interleave
File size : 1.45 GiB
Duration : 1h 43mn
Overall bit rate : 2 019 Kbps
Writing application : VirtualDubMod 1.5.10.3 | www.virtualdub-fr.org || (build 2550/release)
Writing library : VirtualDubMod build 2550/release

Video
ID : 0
Format : MPEG-4 Visual
Format profile : Advanced Simple@L5
Format settings, BVOP : 1
Format settings, QPel : No
Format settings, GMC : No warppoints
Format settings, Matrix : Default (MPEG)
Codec ID : XVID
Codec ID/Hint : XviD
Duration : 1h 43mn
Bit rate : 1 818 Kbps
Width : 720 pixels
Height : 304 pixels
Display aspect ratio : 2.35:1
Frame rate : 24.000 fps
Color space : YUV
Chroma subsampling : 4:2:0
Bit depth : 8 bits
Scan type : Progressive
Compression mode : Lossy
Bits/(Pixel*Frame) : 0.346
Stream size : 1.31 GiB (90%)
Writing library : XviD 73

Audio
ID : 1
Format : AC-3
Format/Info : Audio Coding 3
Mode extension : CM (complete main)
Format settings, Endianness : Big
Codec ID : 2000
Duration : 1h 43mn
Bit rate mode : Constant
Bit rate : 192 Kbps
Channel count : 2 channels
Channel positions : Front: L R
Sampling rate : 48.0 KHz
Bit depth : 16 bits
Compression mode : Lossy
Stream size : 142 MiB (10%)
Alignment : Split accross interleaves
Interleave, duration : 42 ms (1.00 video frame)
Interleave, preload duration : 500 ms
pic pic pic
Для увеличения картинки щелкните мышкой по превью

Этот торрент недоступен для скачивания без регистрации, однако доступен по публичной magnet-ссылке (источники с публичных трекеров). Перед использованием ссылки прочтите, пожалуйста Пользовательское соглашение, а также как можно дольше оставайтесь на раздаче! Для того, чтобы скачать сам торрент-файл (который видит больше источников), а также для того, чтобы поблагодарить релизера, вам необходимо зарегистрироваться. Если регистрироваться лень - вы можете также попробовать скачать релиз по нашим партнерским ссылкам ниже.

[underverse.su].t33316.torrent
Трекер: Зарегистрирован   [ 21.11.2013 13:37 ]  

Статус: проверено (by Паукан at 21.11.2013 13:37)
Поблагодарили: пока никто не поблагодарил...
Тип торрента: публичный - доступные источники с открытых трекеров: 
Размер: 1,45 GB (занимает 1/3 DVDR, для записи нужно 1 болванка DVDR/RW)
 
 
Похожие темы
Форум Тема Автор Торрент Отв. Посл. сооб.
Зарубежное кино [DVDRip, Low-Res HDRip, и т.д.] Кровавое пристанище / Blood Shed (Патрик Хассон, Juan Carlos Saizabitoria) [2014 г., ужасы, WEB-DLRip] VO (Xixidok) + Original (Eng) 90ytr90
11 | 0

0 | 414

8

09.03.2014 19:40


Яндекс.Метрика powered by Sphinx


В Н И М А Н И Е
Сайт не распространяет и не хранит электронные версии произведений, а лишь бесплатно и без коммерческой выгоды (не требуя взамен платы,
SMS и т.д.) предоставляет доступ к создаваемому пользователями каталогу ссылок на торрент-файлы, которые содержат только списки хеш-сумм.
Убедительная просьба с жалобами обращаться напрямую к пользователю, разместившему торрент файл.

Вверх