Loading...
Error

Страсти Дон Жуана / Don Jon (Джозеф Гордон-Левитт / Joseph Gordon-Levitt) [2013 г., комедия, мелодрама, DVDRip] Dub

Статистика раздачи
Размер:  1,46 GB   |    Зарегистрирован:  3 года   |    Скачан:  11 раз

Полного источника не было: 4 месяца 17 дней

Сидов:  0  |  0 KB/s  ]   Личеров:  0  |  0 KB/s  ]

* - сиды/пиры с внешних источников

   
 
Автор Сообщение

Паукан Пол:Муж

21-Ноя-2013 13:32

Страсти Дон Жуана / Don Jon



Страна: США / HitRecord Films, Ram Bergman Productions, Voltage Pictures
Жанр: комедия, мелодрама
Год выпуска: 2013
Продолжительность: 01:26:07

Перевод: Профессиональный (дублированный)
Cубтитры: нет
Оригинальная аудиодорожка: нет

Режиссер: Джозеф Гордон-Левитт / Joseph Gordon-Levitt

В ролях: Джозеф Гордон-Левитт, Скарлетт Йоханссон, Джулианна Мур, Тони Данца, Гленн Хедли, Бри Ларсон, Роб Браун, Джереми Люк, Пол Бен-Виктор, Италиа Риччи...

Роли дублировали: Сергей Смирнов, Татьяна Шитова, Елена Соловьева, Валерий Сторожик, Лариса Некипелова...

Описание: У Джона Мартелло всё подчинено жесткому порядку: его квартира, его машина, его семья, его фитнес, его женщины. Каждые выходные он ходит к мессе, каясь в одних и тех же грехах. И всё равно, никакая близость несравнима для него с трансцендентным блаженством, которого он достигает в одиночестве перед компьютером, смотря порнографию. Он искренне пытается измениться ради той, что кажется ему любовью всей его жизни, но терпит одно крушение за другим, получая урок жизни и любви, на которую, ему казалось, он уже не способен.

Сэмпл

Качество: DVDRip / DVD5 R5
Формат: AVI

Видео: 720x304 (2.35:1), 25.000 fps, XVID ~2029 kbps avg, 0.371 bit/pixel
Аудио: Русский 48 kHz, АС3, 6 ch, 384.00 kbps Constant
Общее
Полное имя : Strasti.Don.Juana.2013.D.DVDRip_[New-Team]_by_avproh.avi
Формат : AVI
Формат/Информация : Audio Video Interleave
Размер файла : 1,46 Гбайт
Продолжительность : 1 ч. 26 м.
Общий поток : 2422 Кбит/сек
Программа кодирования : VirtualDubMod 1.5.10.3 | www.virtualdub-fr.org || (build 2550/release)
Библиотека кодирования : VirtualDubMod build 2550/release

Видео
Идентификатор : 0
Формат : MPEG-4 Visual
Профиль формата : Advanced Simple@L5
Параметр BVOP формата : 1
Параметр QPel формата : Нет
Параметр GMC формата : Без точки перехода
Параметр матрицы формата : Выборочная
Идентификатор кодека : XVID
Идентификатор кодека/Подсказка : XviD
Продолжительность : 1 ч. 26 м.
Битрейт : 2029 Кбит/сек
Ширина : 720 пикселей
Высота : 304 пикселя
Соотношение сторон : 2,35:1
Частота кадров : 25,000 кадров/сек
Цветовое пространство : YUV
Субдискретизация насыщенности : 4:2:0
Битовая глубина : 8 бит
Тип развёртки : Прогрессивная
Метод сжатия : С потерями
Бит/(Пиксели*Кадры) : 0.371
Размер потока : 1,22 Гбайт (84%)
Библиотека кодирования : XviD 73

Аудио
Идентификатор : 1
Формат : AC-3
Формат/Информация : Audio Coding 3
Расширение режима : CM (complete main)
Параметр Endianness формата : Big
Идентификатор кодека : 2000
Продолжительность : 1 ч. 26 м.
Вид битрейта : Постоянный
Битрейт : 384 Кбит/сек
Каналы : 6 каналов
Расположение каналов : Front: L C R, Side: L R, LFE
Частота : 48,0 КГц
Битовая глубина : 16 бит
Метод сжатия : С потерями
Размер потока : 237 Мбайт (16%)
Выравнивание : Разделение по промежуткам
Продолжительность промежутка : 40 мс. (1,00 видеокадр)
Время предзагрузки промежутка : 500 мс.
pic pic pic
Для увеличения картинки щелкните мышкой по превью

Этот торрент недоступен для скачивания без регистрации, однако доступен по публичной magnet-ссылке (источники с публичных трекеров). Перед использованием ссылки прочтите, пожалуйста Пользовательское соглашение, а также как можно дольше оставайтесь на раздаче! Для того, чтобы скачать сам торрент-файл (который видит больше источников), а также для того, чтобы поблагодарить релизера, вам необходимо зарегистрироваться. Если регистрироваться лень - вы можете также попробовать скачать релиз по нашим партнерским ссылкам ниже.

[underverse.su].t33315.torrent
Трекер: Зарегистрирован   [ 21.11.2013 13:32 ]  

Статус: проверено (by Паукан at 21.11.2013 13:33)
Поблагодарили: пока никто не поблагодарил...
Тип торрента: публичный - доступные источники с открытых трекеров: 
Размер: 1,46 GB (занимает 1/3 DVDR, для записи нужно 1 болванка DVDR/RW)
 
 
Похожие темы
Форум Тема Автор Торрент Отв. Посл. сооб.
Зарубежное кино [DVDRip, Low-Res HDRip, и т.д.] Страсти Дон Жуана / Don Jon (Джозеф Гордон-Левитт) [2013 г., комедия, мелодрама, DVDRip] Dub 90ytr90
0 | 0

1 | 1638

63

16.11.2013 20:44

Зарубежное кино [DVDRip, Low-Res HDRip, и т.д.] Страсти Дон Жуана / Don Jon (Джозеф Гордон-Левитт) [2013 г., комедия, мелодрама, BDRip-AVC] Dub 90ytr90
1 | 0

0 | 301

23

04.12.2013 14:55

Зарубежное кино [HDDVDRip / BDRip / WEB-DL / HDTV 1080/720р] Страсти Дон Жуана / Don Jon (Джозеф Гордон-Левитт) [2013 г., комедия, мелодрама, BDRip 720p] Dub 90ytr90
1 | 0

0 | 1585

26

04.12.2013 09:53

Зарубежное кино [HDDVDRip / BDRip / WEB-DL / HDTV 1080/720р] Страсти Дон Жуана / Don Jon (Джозеф Гордон-Левитт) [2013 г., комедия, мелодрама, BDRip 1080p] Dub 90ytr90
1 | 0

0 | 275

13

04.12.2013 15:15


Яндекс.Метрика powered by Sphinx


В Н И М А Н И Е
Сайт не распространяет и не хранит электронные версии произведений, а лишь бесплатно и без коммерческой выгоды (не требуя взамен платы,
SMS и т.д.) предоставляет доступ к создаваемому пользователями каталогу ссылок на торрент-файлы, которые содержат только списки хеш-сумм.
Убедительная просьба с жалобами обращаться напрямую к пользователю, разместившему торрент файл.

Вверх