Loading...
Error

Монтаж / Montage / Mong-ta-joo (Чон Гын Соп) [2013 г., триллер, детектив, криминал, DVDRip] DVO [DeadSno & den904]

Статистика раздачи
Размер:  1,38 GB   |    Зарегистрирован:  3 года   |    Скачан:  15 раз

Полного источника не было: 1 год 7 месяцев

Сидов:  0  |  0 KB/s  ]   Личеров:  0  |  0 KB/s  ]

* - сиды/пиры с внешних источников

   
 
Автор Сообщение

Паукан Пол:Муж

20-Ноя-2013 11:27

Монтаж / Montage / Mong-ta-joo


Название: Монтаж
Оригинальное название: Montage / Mong-ta-joo
Год выхода: 2013
Жанр: триллер, детектив, криминал
Режиссер: Чон Гын Соп
В ролях: Ом Чон Хва, Ким Сан Кён, Сон Ён Чан, Чо Хи Бон, Ю Сын Мок, Ли Чжун Хёк, Пак Чоль Мин

О фильме:
15 лет назад была похищена девочка, и похититель исчез без следа. За пять дней до момента окончания срока давности привлечения к уголовной ответственности похитителя, кто-то оставляет цветок на месте того совершенного 15 лет назад преступления. Несколько дней спустя таким же способом было совершено еще одно похищение. Теперь, три человека пытаются любым способом найти похитителя: мать, чья дочь была похищена 15 лет назад; дедушка, внучку которого украли практически у него на глазах, и детектив, который расследовал первое похищение.



Страна: Южная Корея
Продолжительность: 02:00:09
Перевод: Любительский (двухголосый закадровый) [DeadSno & den904]

Файл
Кодек: XviD
Качество: DVDRip
Видео: 720x384, 1438 kbps, 29,970 fps, 0,173 Bits/(Pixel*Frame)
Звук: AC3, 48 kHz, 2 ch, 192 kbps
Субтитры: Нет

Автор рипа: _Bathory_
General
Complete name : G:Montage.2013.VDRip_by_Bathory.avi
Format : AVI
Format/Info : Audio Video Interleave
File size : 1.38 GiB
Duration : 2h 0mn
Overall bit rate : 1 641 Kbps
Writing application : VirtualDubMod 1.5.10.3 | www.virtualdub-fr.org || (build 2550/release)
Writing library : VirtualDubMod build 2550/release

Video
ID : 0
Format : MPEG-4 Visual
Format profile : Advanced Simple@L5
Format settings, BVOP : 1
Format settings, QPel : No
Format settings, GMC : No warppoints
Format settings, Matrix : Default (MPEG)
Codec ID : XVID
Codec ID/Hint : XviD
Duration : 2h 0mn
Bit rate : 1 438 Kbps
Width : 720 pixels
Height : 384 pixels
Display aspect ratio : 1.85:1
Frame rate : 29.970 fps
Color space : YUV
Chroma subsampling : 4:2:0
Bit depth : 8 bits
Scan type : Progressive
Compression mode : Lossy
Bits/(Pixel*Frame) : 0.173
Stream size : 1.21 GiB (88%)
Writing library : XviD 1.2.1 (UTC 2008-12-04)

Audio
ID : 1
Format : AC-3
Format/Info : Audio Coding 3
Mode extension : CM (complete main)
Format settings, Endianness : Big
Codec ID : 2000
Duration : 2h 0mn
Bit rate mode : Constant
Bit rate : 192 Kbps
Channel count : 2 channels
Channel positions : Front: L R
Sampling rate : 48.0 KHz
Bit depth : 16 bits
Compression mode : Lossy
Stream size : 165 MiB (12%)
Alignment : Split accross interleaves
Interleave, duration : 33 ms (1.00 video frame)
Interleave, preload duration : 500 ms
pic pic pic
Для увеличения картинки щелкните мышкой по превью

Этот торрент недоступен для скачивания без регистрации, однако доступен по публичной magnet-ссылке (источники с публичных трекеров). Перед использованием ссылки прочтите, пожалуйста Пользовательское соглашение, а также как можно дольше оставайтесь на раздаче! Для того, чтобы скачать сам торрент-файл (который видит больше источников), а также для того, чтобы поблагодарить релизера, вам необходимо зарегистрироваться. Если регистрироваться лень - вы можете также попробовать скачать релиз по нашим партнерским ссылкам ниже.

[underverse.su].t33278.torrent
Трекер: Зарегистрирован   [ 20.11.2013 11:27 ]  

Статус: проверено (by Паукан at 20.11.2013 11:27)
Поблагодарили: пока никто не поблагодарил...
Тип торрента: публичный - доступные источники с открытых трекеров: 
Размер: 1,38 GB (занимает 0,31 DVDR, для записи нужно 1 болванка DVDR/RW)
 
 

Яндекс.Метрика powered by Sphinx


В Н И М А Н И Е
Сайт не распространяет и не хранит электронные версии произведений, а лишь бесплатно и без коммерческой выгоды (не требуя взамен платы,
SMS и т.д.) предоставляет доступ к создаваемому пользователями каталогу ссылок на торрент-файлы, которые содержат только списки хеш-сумм.
Убедительная просьба с жалобами обращаться напрямую к пользователю, разместившему торрент файл.

Вверх