Loading...
Error

Университет монстров / Monsters University (Дэн Скэнлон) [2013 г., мультфильм, фэнтези, комедия, приключения, семейный, BDRip] Dub + Original HQ Underverse

Статистика раздачи
Размер:  2,17 GB   |    Зарегистрирован:  3 года   |    Скачан:  64 раза

Полного источника не было: 3 дня

Сидов:  0  |  0 KB/s  ]   Личеров:  0  |  0 KB/s  ]

* - сиды/пиры с внешних источников

   
 
Автор Сообщение

HQ Underverse 

19-Ноя-2013 23:12

Университет монстров / Monsters University


Год выпуска: 2013
Жанр: мультфильм, фэнтези, комедия, приключения, семейный
Страна: США
Режиссер: Дэн Скэнлон
Роли озвучивали: Джон Гудман, Билли Кристал, Хелен Миррен, Питер Сон, Джоэль Мюррей, Шон Хейс, Дэйв Фоли, Чарли Дэй, Альфред Молина, Стив Бушеми
Сюжет фильма:
Майк и Салли – самые опытные пугатели в Монстрополисе, но так было далеко не всегда. Когда они встретились впервые, эти монстры терпеть друг друга не могли. «Университет Монстров» - история о том, как наши старые знакомые прошли путь от взаимной неприязни к крепкой дружбе.

Качество видео: BDRip

Продолжительность: 01:43:47
Формат: avi
Видео: XviD, 720x400, 2080 kbps
Аудио #1: русский, дублированный [лицензия], AC3 5.1, 448 kbps
Аудио #2: английский, оригинал, AC3 5.1, 448 kbps

Код:

General
Complete name                    : D:\Video\Movies\Releases\Monsters.University.2013.BDRip.XviD.AC3.Rus.D.Eng.O.HQ.Underverse.avi
Format                           : AVI
Format/Info                      : Audio Video Interleave
Format profile                   : OpenDML
File size                        : 2.17 GiB
Duration                         : 1h 43mn
Overall bit rate                 : 2 995 Kbps
Writing application              : VirtualDubMod 1.5.10.2 (build 2540/release)
Writing library                  : VirtualDubMod build 2540/release

Video
ID                               : 0
Format                           : MPEG-4 Visual
Format profile                   : Streaming Video@L1
Format settings, BVOP            : Yes
Format settings, QPel            : No
Format settings, GMC             : No warppoints
Format settings, Matrix          : Custom
Muxing mode                      : Packed bitstream
Codec ID                         : XVID
Codec ID/Hint                    : XviD
Duration                         : 1h 43mn
Bit rate                         : 2 081 Kbps
Width                            : 720 pixels
Height                           : 400 pixels
Display aspect ratio             : 16/9
Frame rate                       : 23.976 fps
Resolution                       : 24 bits
Colorimetry                      : 4:2:0
Scan type                        : Progressive
Bits/(Pixel*Frame)               : 0.301
Stream size                      : 1.51 GiB (69%)
Writing library                  : XviD 64

Audio #1
ID                               : 1
Format                           : AC-3
Format/Info                      : Audio Coding 3
Codec ID                         : 2000
Duration                         : 1h 43mn
Bit rate mode                    : Constant
Bit rate                         : 448 Kbps
Channel(s)                       : 6 channels
Channel positions                : Front: L C R, Surround: L R, LFE
Sampling rate                    : 48.0 KHz
Stream size                      : 333 MiB (15%)
Alignment                        : Split accross interleaves
Interleave, duration             : 42 ms (1.00 video frame)
Interleave, preload duration     : 500 ms
Title                            : Monsters.University.2013.Rus.Dub.AC3.5.1.448.kbps.HQ.Underverse

Audio #2
ID                               : 2
Format                           : AC-3
Format/Info                      : Audio Coding 3
Codec ID                         : 2000
Duration                         : 1h 43mn
Bit rate mode                    : Constant
Bit rate                         : 448 Kbps
Channel(s)                       : 6 channels
Channel positions                : Front: L C R, Surround: L R, LFE
Sampling rate                    : 48.0 KHz
Stream size                      : 333 MiB (15%)
Alignment                        : Split accross interleaves
Interleave, duration             : 42 ms (1.00 video frame)
Interleave, preload duration     : 500 ms
Title                            : Monsters.University.2013.Eng.O.AC3.5.1.448.kbps.HQ.Underverse

Семпл: http://multi-up.com/924978

Релиз группы:

picpicpic
Для увеличения картинки щелкните мышкой по превью

Этот торрент недоступен для скачивания без регистрации, однако доступен по публичной magnet-ссылке (источники с публичных трекеров). Перед использованием ссылки прочтите, пожалуйста Пользовательское соглашение, а также как можно дольше оставайтесь на раздаче! Для того, чтобы скачать сам торрент-файл (который видит больше источников), а также для того, чтобы поблагодарить релизера, вам необходимо зарегистрироваться. Если регистрироваться лень - вы можете также попробовать скачать релиз по нашим партнерским ссылкам ниже.

[underverse.su].t33262.torrent
Трекер: Зарегистрирован   [ 19.11.2013 23:12 ]  

Статус: проверено (by Паукан at 20.11.2013 11:04)
Поблагодарили: 3 человека
Тип торрента: публичный - доступные источники с открытых трекеров: 
Размер: 2,17 GB (занимает 1/2 DVDR, для записи нужно 1 болванка DVDR/RW)
 
 
Похожие темы
Форум Тема Автор Торрент Отв. Посл. сооб.
Зарубежное кино [DVDRip, Low-Res HDRip, и т.д.] Университетский вампир / Vamp U (Мэтт Есперсен, Маклейн Нельсон) [2013 г., ужасы, боевик, комедия, BDRip] MVO (НТВ+) 90ytr90
14 | 1

0 | 401

14

17.04.2014 16:58

T Зарубежное кино [DVDRip, Low-Res HDRip, и т.д.] Университетская кровь / Varsity Blood (Джейк Хелгрен) [2014 г., Ужасы, WEB-DLRip] VO (RUS, datynet) + Original (ENG) Ведьмочка
1 | 0

0 | 287

6

23.09.2014 14:32

Зарубежные мультфильмы Университет монстров / Monsters University (Дэн Скэнлон) [2013 г., мультфильм, фэнтези, комедия, приключения, семейный, HDRip] MVO (BaibaKo) 90ytr90
1 | 0

0 | 2801

197

12.10.2013 04:26

Зарубежные мультфильмы Университет монстров / Monsters University (Дэн Скэнлон / Dan Scanlon) [2013 г., мультфильм, фэнтези, комедия, приключения, семейный, BDRip] Dub (iTunes Russia) 90ytr90
0 | 0

0 | 1682

55

28.10.2013 06:44

Зарубежные мультфильмы Университет монстров / Monsters University (Дэн Скэнлон) [2013 г., мультфильм, фэнтези, комедия, приключения, семейный, HDRip] Dub 90ytr90
3 | 2

0 | 2076

123

01.11.2013 05:23

T Зарубежное кино [HDDVDRip / BDRip / WEB-DL / HDTV 1080/720р] Университетская кровь / Varsity Blood (Джейк Хелгрен) [2014 г., ужасы, WEB-DL 720p] VO [datynet] + Original + Sub (Eng) Паукан
0 | 0

0 | 1208

15

19.09.2014 14:36

T Зарубежное кино [HDDVDRip / BDRip / WEB-DL / HDTV 1080/720р] Университетская кровь / Varsity Blood (Джейк Хелгрен) [2014 г., Ужасы, WEB-DL 720p] 2-VO (RUS, datynet) + 2-Original (ENG) + Subs (ENG) Ведьмочка
2 | 1

0 | 595

1

04.10.2014 05:03

Мультфильмы [HDDVDRip / BDRip / WEB-DL / HDTV 1080/720р] Университет монстров / Monsters University (Дэн Скэнлон) [2013 г., мультфильм, фэнтези, комедия, приключения, семейный, BDRip 720p] MVO (BaibaKo) + Original 90ytr90
0 | 0

0 | 648

35

12.10.2013 04:34

Мультфильмы [HDDVDRip / BDRip / WEB-DL / HDTV 1080/720р] Университет монстров / Monsters University (Дэн Скэнлон) [2013 г., мультфильм, фэнтези, комедия, приключения, семейный, BDRip 1080p] MVO (BaibaKo) + Original 90ytr90
0 | 0

0 | 696

46

12.10.2013 04:42

Мультфильмы [HDDVDRip / BDRip / WEB-DL / HDTV 1080/720р] Университет монстров / Monsters University (Дэн Скэнлон) [2013 г., мультфильм, фэнтези, комедия, приключения, семейный, полнометражный, BDRip 720p] Dub + Original + Subs 90ytr90
1 | 0

0 | 692

27

01.11.2013 06:56


Яндекс.Метрика powered by Sphinx


В Н И М А Н И Е
Сайт не распространяет и не хранит электронные версии произведений, а лишь бесплатно и без коммерческой выгоды (не требуя взамен платы,
SMS и т.д.) предоставляет доступ к создаваемому пользователями каталогу ссылок на торрент-файлы, которые содержат только списки хеш-сумм.
Убедительная просьба с жалобами обращаться напрямую к пользователю, разместившему торрент файл.

Вверх