Loading...
Error

Случай в аэропорту (Юнус Юсупов) [1987 г., боевик, криминал, TVRip]

Статистика раздачи
Размер:  3,11 GB   |    Зарегистрирован:  3 года   |    Скачан:  7 раз

Полного источника не было: 10 месяцев

Сидов:  0  |  0 KB/s  ]   Личеров:  0  |  0 KB/s  ]

* - сиды/пиры с внешних источников

   
 
Автор Сообщение

Паукан Пол:Муж

19-Ноя-2013 11:24

Случай в аэропорту


Страна: СССР
Производство: Таджикфильм
Жанр: Боевик, криминал
Год выпуска: 1987
Продолжительность: 3 x ~ 01:15:00
Перевод: Дублированный
Режиссер: Юнус Юсупов
В ролях:Сергей Бондарчук, Сайрам Исаева, Данута Столярская, Закир Кадыров, Паул Буткевич, Дмитрий Иосифов, Александр Соловьев, Рустам Уразаев, Юнус Юсупов, Анастасия Георгиевская, Бахром Акрамов, Рано Хамраева, Леонид Трутнев, Владислав Ковальков, Елена Костина, Савринисо Сабзалиева



Описание: Расследование уголовного дела об отравлении охранников аэропорта Душанбе с целью хищения редких ювелирных изделий.

фильмы онлайн

Тип релиза: TVRip
Контейнер: AVI
Видео: 640x480 (1.33:1), 23.976 fps, XviD ~1819 kbps avg, 0.25 bit/pixel
Аудио: 48 kHz, AC3 2.0 ~192.00 kbps avg
Семпл
Общее
Полное имя : D:\залить\Случай в аэропорту1 серия.avi
Формат : AVI
Формат/Информация : Audio Video Interleave
Размер файла : 1,07 Гбайт
Продолжительность : 1 ч. 15 м.
Общий поток : 2021 Кбит/сек
Программа кодирования : VirtualDubMod 1.5.10.3 | www.virtualdub-fr.org || (build 2550/release)
Библиотека кодирования : VirtualDubMod build 2550/release

Видео
Идентификатор : 0
Формат : MPEG-4 Visual
Профиль формата : Advanced Simple@L5
Параметр BVOP формата : 2
Параметр QPel формата : Нет
Параметр GMC формата : Без точки перехода
Параметр матрицы формата : Default (H.263)
Режим смешивания : Сжатый битовый поток
Идентификатор кодека : XVID
Идентификатор кодека/Подсказка : XviD
Продолжительность : 1 ч. 15 м.
Битрейт : 1820 Кбит/сек
Ширина : 640 пикселей
Высота : 480 пикселей
Соотношение сторон : 4:3
Частота кадров : 23,976 кадра/сек
Цветовое пространство : YUV
Субдискретизация насыщенности : 4:2:0
Битовая глубина : 8 бит
Тип развёртки : Прогрессивная
Метод сжатия : С потерями
Бит/(Пиксели*Кадры) : 0.247
Размер потока : 986 Мбайт (90%)
Библиотека кодирования : XviD 1.2.1 (UTC 2008-12-04)

Аудио
Идентификатор : 1
Формат : AC-3
Формат/Информация : Audio Coding 3
Расширение режима : CM (complete main)
Параметр Endianness формата : Big
Идентификатор кодека : 2000
Продолжительность : 1 ч. 15 м.
Вид битрейта : Постоянный
Битрейт : 192 Кбит/сек
Каналы : 2 канала
Расположение каналов : Front: L R
Частота : 48,0 КГц
Битовая глубина : 16 бит
Метод сжатия : С потерями
Размер потока : 104 Мбайт (9%)
Выравнивание : Разделение по промежуткам
Продолжительность промежутка : 42 мс. (1,00 видеокадр)
Время предзагрузки промежутка : 500 мс.
pic pic pic
Для увеличения картинки щелкните мышкой по превью

Этот торрент недоступен для скачивания без регистрации, однако доступен по публичной magnet-ссылке (источники с публичных трекеров). Перед использованием ссылки прочтите, пожалуйста Пользовательское соглашение, а также как можно дольше оставайтесь на раздаче! Для того, чтобы скачать сам торрент-файл (который видит больше источников), а также для того, чтобы поблагодарить релизера, вам необходимо зарегистрироваться. Если регистрироваться лень - вы можете также попробовать скачать релиз по нашим партнерским ссылкам ниже.

[underverse.su].t33232.torrent
Трекер: Зарегистрирован   [ 19.11.2013 11:24 ]  

Статус: проверено (by Паукан at 19.11.2013 11:24)
Поблагодарили: пока никто не поблагодарил...
Тип торрента: публичный - доступные источники с открытых трекеров: 
Размер: 3,11 GB (занимает 0,71 DVDR, для записи нужно 1 болванка DVDR/RW)
 
 

Яндекс.Метрика powered by Sphinx


В Н И М А Н И Е
Сайт не распространяет и не хранит электронные версии произведений, а лишь бесплатно и без коммерческой выгоды (не требуя взамен платы,
SMS и т.д.) предоставляет доступ к создаваемому пользователями каталогу ссылок на торрент-файлы, которые содержат только списки хеш-сумм.
Убедительная просьба с жалобами обращаться напрямую к пользователю, разместившему торрент файл.

Вверх