Loading...
Error

Тихоокеанский рубеж / Pacific Rim (Гильермо дель Торо) [2013 г., фантастика, боевик, BDRip] Dub + Original HQ Underverse

Статистика раздачи
Размер:  2,9 GB   |    Зарегистрирован:  3 года   |    Скачан:  90 раз

Полного источника не было: 16 дней

Сидов:  0  |  0 KB/s  ]   Личеров:  0  |  0 KB/s  ]

* - сиды/пиры с внешних источников

   
 
Автор Сообщение

HQ Underverse 

14-Ноя-2013 10:02

Тихоокеанский рубеж / Pacific Rim


Год выпуска: 2013
Жанр: фантастика, боевик
Страна: США
Режиссер: Гильермо дель Торо
В ролях: Чарли Ханнэм, Рон Перлман, Идрис Эльба, Диего Клаттенхофф, Чарли Дэй, Берн Горман, Клифтон Коллинз мл., Ринко Кикучи, Роберт Мэйллет, Макс Мартини
Сюжет фильма:
Когда из морских глубин поднялись легионы чудовищ, известных как Кайдзу, началась война, которой суждено было забрать миллионы жизней и свести «человеческие ресурсы» почти к нулю всего за несколько лет. Чтобы сражаться с пришельцами, было создано специальное оружие: огромные роботы, названные Джегерами, они управлялись одновременно двумя пилотами, чьи сознания соединены с помощью нейронной связи. Но даже Джегеры оказываются почти бессильны перед лицом безжалостных Кайдзу. На грани поражения у защитников человечества нет выбора, кроме как обратиться к двум весьма сомнительным героям — никому не нужному бывшему пилоту и неопытному стажеру — которые объединились, чтобы повести в бой некогда легендарного, но сейчас устаревшего Джегера. Вместе они оказываются единственной надеждой человечества, последним препятствием перед надвигающимся апокалипсисом.

  • Мировая премьера: 2 июля 2013
  • Российская премьера: 11 июля 2013


Качество видео: BDRip

Продолжительность: 02:11:16
Формат: avi
Видео: XviD, 720x400, 2254 kbps
Аудио #1: русский, дублированный [лицензия], AC3 5.1, 448 kbps
Аудио #2: английский, оригинал, AC3 5.1, 448 kbps

Код:

General
Complete name                    : D:\Downloads\Pacific.Rim.2013.BDRip.XviD.AC3.Rus.D.Eng.O.HQ.Underverse.avi
Format                           : AVI
Format/Info                      : Audio Video Interleave
Format profile                   : OpenDML
File size                        : 2.90 GiB
Duration                         : 2h 11mn
Overall bit rate                 : 3 166 Kbps
Writing application              : VirtualDubMod 1.5.10.2 (build 2540/release)
Writing library                  : VirtualDubMod build 2540/release

Video
ID                               : 0
Format                           : MPEG-4 Visual
Format profile                   : Streaming Video@L1
Format settings, BVOP            : Yes
Format settings, QPel            : No
Format settings, GMC             : No warppoints
Format settings, Matrix          : Custom
Muxing mode                      : Packed bitstream
Codec ID                         : XVID
Codec ID/Hint                    : XviD
Duration                         : 2h 11mn
Bit rate                         : 2 254 Kbps
Width                            : 720 pixels
Height                           : 400 pixels
Display aspect ratio             : 16/9
Frame rate                       : 23.976 fps
Resolution                       : 24 bits
Colorimetry                      : 4:2:0
Scan type                        : Progressive
Bits/(Pixel*Frame)               : 0.326
Stream size                      : 2.07 GiB (71%)
Writing library                  : XviD 64

Audio #1
ID                               : 1
Format                           : AC-3
Format/Info                      : Audio Coding 3
Codec ID                         : 2000
Duration                         : 2h 11mn
Bit rate mode                    : Constant
Bit rate                         : 448 Kbps
Channel(s)                       : 6 channels
Channel positions                : Front: L C R, Surround: L R, LFE
Sampling rate                    : 48.0 KHz
Stream size                      : 421 MiB (14%)
Alignment                        : Split accross interleaves
Interleave, duration             : 42 ms (1.00 video frame)
Interleave, preload duration     : 500 ms
Title                            : Pacific.Rim.2013.Rus.Dub.AC3.5.1.448.kbps.HQ.Underverse

Audio #2
ID                               : 2
Format                           : AC-3
Format/Info                      : Audio Coding 3
Codec ID                         : 2000
Duration                         : 2h 11mn
Bit rate mode                    : Constant
Bit rate                         : 448 Kbps
Channel(s)                       : 6 channels
Channel positions                : Front: L C R, Surround: L R, LFE
Sampling rate                    : 48.0 KHz
Stream size                      : 421 MiB (14%)
Alignment                        : Split accross interleaves
Interleave, duration             : 42 ms (1.00 video frame)
Interleave, preload duration     : 500 ms
Title                            : Pacific.Rim.2013.Eng.O.AC3.5.1.448.kbps.HQ.Underverse

Семпл: http://multi-up.com/923299

Релиз группы:

picpicpic
Для увеличения картинки щелкните мышкой по превью

Этот торрент недоступен для скачивания без регистрации, однако доступен по публичной magnet-ссылке (источники с публичных трекеров). Перед использованием ссылки прочтите, пожалуйста Пользовательское соглашение, а также как можно дольше оставайтесь на раздаче! Для того, чтобы скачать сам торрент-файл (который видит больше источников), а также для того, чтобы поблагодарить релизера, вам необходимо зарегистрироваться. Если регистрироваться лень - вы можете также попробовать скачать релиз по нашим партнерским ссылкам ниже.

[underverse.su].t33044.torrent
Трекер: Зарегистрирован   [ 14.11.2013 10:02 ]  

Статус: проверено (by Паукан at 14.11.2013 13:28)
Поблагодарили: 9 человек
Тип торрента: публичный - доступные источники с открытых трекеров: 
Размер: 2,9 GB (занимает 2/3 DVDR, для записи нужно 1 болванка DVDR/RW)
 
 
Похожие темы
Форум Тема Автор Торрент Отв. Посл. сооб.
Зарубежное кино [DVDRip, Low-Res HDRip, и т.д.] Тихоокеанский рубеж / Pacific Rim (Гильермо дель Торо) [2013 г., фантастика, фэнтези, боевик, приключения, BDRip-AVC] Dub (iTunes Russia) + AVO (Сербин) + Original + Sub (Rus, Eng) 90ytr90
1 | 0

0 | 5533

10

28.10.2013 15:11

Зарубежное кино [DVDRip, Low-Res HDRip, и т.д.] Тихоокеанский рубеж / Pacific Rim (Гильермо дель Торо) [2013 г., фантастика, фэнтези, боевик, приключения, BDRip-AVC] Dub (iTunes Russia) + Sub (Rus, Eng) 90ytr90
2 | 0

0 | 5551

25

28.10.2013 16:53

Зарубежное кино [DVDRip, Low-Res HDRip, и т.д.] Тихоокеанский рубеж / Pacific Rim (Гильермо дель Торо / Guillermo del Toro) [2013 г., фантастика, фэнтези, боевик, приключения, BDRip] AVO (Л.Володарский) 90ytr90
0 | 0

0 | 6468

16

03.11.2013 21:06

Зарубежное кино [DVDRip, Low-Res HDRip, и т.д.] Тихоокеанский рубеж / Pacific Rim (Гильермо дель Торо) [2013 г., фантастика, фэнтези, боевик, приключения, HDRip] Dub 90ytr90
1 | 0

0 | 5458

37

09.11.2013 04:12

Зарубежное кино [DVDRip, Low-Res HDRip, и т.д.] Тихоокеанский рубеж / Pacific Rim (Гильермо дель Торо) [2013 г., фантастика, фэнтези, боевик, приключения, HDRip] Dub 90ytr90
0 | 0

0 | 6113

33

09.11.2013 04:26

Зарубежное кино [DVDRip, Low-Res HDRip, и т.д.] Тихоокеанский рубеж / Pacific Rim (Гильермо дель Торо) [2013 г., фантастика, фэнтези, боевик, приключения, HDRip-AVC] Dub + Subs 90ytr90
6 | 0

0 | 471

8

16.02.2015 18:52

Зарубежное кино [DVD / HDDVD / BD / Remux] Тихоокеанский рубеж / Pacific Rim (Гильермо дель Торо / Guillermo del Toro) [2013, США, фантастика, боевик, Blu-ray disc 1080p] Dub + Sub Rus, Eng + Original Eng uzi2009
7 | 0

0 | 592

5

13.03.2014 20:51

Зарубежное кино [HDDVDRip / BDRip / WEB-DL / HDTV 1080/720р] Тихоокеанский рубеж / Pacific Rim (Гильермо дель Торо) [2013 г., фантастика, фэнтези, боевик, приключения, BDRip 720p] Dub (iTunes) + Original + Sub (Rus) 90ytr90
1 | 0

0 | 591

29

28.10.2013 04:57

Зарубежное кино [HDDVDRip / BDRip / WEB-DL / HDTV 1080/720р] Тихоокеанский рубеж / Pacific Rim (Гильермо дель Торо) [2013 г., фантастика, фэнтези, боевик, приключения, BDRip 1080p] Dub (iTunes) + Original + Sub (Rus, Eng) 90ytr90
1 | 0

0 | 638

22

28.10.2013 16:33

Зарубежное кино [HDDVDRip / BDRip / WEB-DL / HDTV 1080/720р] Тихоокеанский рубеж / Pacific Rim (Гильермо дель Торо / Guillermo Del Toro) [2013 г., фантастика, фэнтези, боевик, приключения, BDRip 1080p] Dub + AVO (Ю.Сербин) + Original + Sub (Rus, Eng) 90ytr90
4 | 0

0 | 477

21

09.11.2013 08:23


Яндекс.Метрика powered by Sphinx


В Н И М А Н И Е
Сайт не распространяет и не хранит электронные версии произведений, а лишь бесплатно и без коммерческой выгоды (не требуя взамен платы,
SMS и т.д.) предоставляет доступ к создаваемому пользователями каталогу ссылок на торрент-файлы, которые содержат только списки хеш-сумм.
Убедительная просьба с жалобами обращаться напрямую к пользователю, разместившему торрент файл.

Вверх