Loading...
Error

Братья по обмену / Серии 1-10 (10) (Александр Жигалкин) [2013 г., Комедия, SatRip]

Статистика раздачи
Размер:  5,27 GB   |    Зарегистрирован:  3 года   |    Скачан:  33 раза

Полного источника не было: 3 месяца 21 день

Сидов:  0  |  0 KB/s  ]   Личеров:  0  |  0 KB/s  ]

* - сиды/пиры с внешних источников

   
 
Автор Сообщение

nemos Пол:Муж

13-Ноя-2013 17:17

Братья по обмену



Год выпуска: 2013
Жанр: Комедия
Страна: Россия
Режиссер: Александр Жигалкин
В ролях: Фёдор Добронравов, Мария Аронова, Борис Клюев, Галина Петрова, Елена Шевченко, Карэн Бадалов, Мария Горбань, Юлия Зимина, Виктор Добронравов, Светлана Малюкова, Дмитрий Быковский
Это история о двух братьях-близнецах, которые после тридцатилетней разлуки встречаются на родине, в глухом селе на похоронах отца. Волею судеб, их жизнь сложилась по-разному. И сами они, на первый взгляд, совершенно не похожи друг на друга: один – преуспевающий бизнесмен, второй – пьяница и зэк. Но постепенно становится понятно, что они родные люди, и сходство у них не только внешнее.


Качество видео: SatRip

Продолжительность: 00:42:31серия
Формат: AVI
Видео: DivX, 720x400, 1600 kbps
Аудио: русский, MP3 2.0, 128 kbps

Код:

E:\Фильмы (роздача)\Bratja.po.obmenu\Bratja.po.obmenu.10.avi
   General
      Complete name : E:\Фильмы (роздача)\Bratja.po.obmenu\Bratja.po.obmenu.10.avi
      Format : AVI
      Format/Info : Audio Video Interleave
      File size : 530 MiB
      Duration : 42mn 31s
      Overall bit rate : 1 741 Kbps
      Writing application : transcode-1.1.5
   Video #0
      ID : 0
      Format : MPEG-4 Visual
      Format settings, BVOP : Yes
      Format settings, QPel : No
      Format settings, GMC : No warppoints
      Format settings, Matrix : Default (H.263)
      Codec ID : DX50
      Codec ID/Hint : DivX 5
      Duration : 42mn 31s
      Bit rate : 1 600 Kbps
      Width : 720 pixels
      Height : 400 pixels
      Display aspect ratio : 16:9
      Frame rate : 25.000 fps
      Color space : YUV
      Chroma subsampling : 4:2:0
      Bit depth : 8 bits
      Scan type : Progressive
      Compression mode : Lossy
      Bits/(Pixel*Frame) : 0.222
      Stream size : 487 MiB (92%)
      Writing library : Intel(R) MPEG-4 encoder based on Intel(R) IPP 6.1 build 137.20[6.1.137.763]
   Audio #1
      ID : 1
      Format : MPEG Audio
      Format version : Version 1
      Format profile : Layer 3
      Mode : Joint stereo
      Mode extension : MS Stereo
      Codec ID : 55
      Codec ID/Hint : MP3
      Duration : 42mn 31s
      Bit rate mode : Constant
      Bit rate : 128 Kbps
      Channel(s) : 2 channels
      Sampling rate : 48.0 KHz
      Compression mode : Lossy
      Stream size : 38.9 MiB (7%)
      Alignment : Aligned on interleaves
      Interleave, duration : 24 ms (0.60 video frame)
      Interleave, preload duration : 48 ms
      Writing library : LAME3.98.2
Семпл: http://multi-up.com/923129

picpicpicpicpicpicpicpicpicpicpicpicpicpic
Для увеличения картинки щелкните мышкой по превью

Этот торрент недоступен для скачивания без регистрации, однако доступен по публичной magnet-ссылке (источники с публичных трекеров). Перед использованием ссылки прочтите, пожалуйста Пользовательское соглашение, а также как можно дольше оставайтесь на раздаче! Для того, чтобы скачать сам торрент-файл (который видит больше источников), а также для того, чтобы поблагодарить релизера, вам необходимо зарегистрироваться. Если регистрироваться лень - вы можете также попробовать скачать релиз по нашим партнерским ссылкам ниже.

[underverse.su].t33056.torrent
Трекер: Зарегистрирован   [ 14.11.2013 14:09 ]  

Статус: проверено (by 90ytr90 at 14.11.2013 17:57)
Поблагодарили: 6 человек
Тип торрента: публичный - доступные источники с открытых трекеров: 
Размер: 5,27 GB (занимает 1,2 DVDR, для записи нужно 2 болванки DVDR/RW)
 
 
Похожие темы
Форум Тема Автор Торрент Отв. Посл. сооб.
Зарубежные сериалы Братья по оружию / Band of Brothers (Дэвид Фрэнкел, Микаэл Саломон) [2001 (1 сезон) г., боевик, военный, история, BDRip] garry
2 | 0

0 | 1587

5

14.09.2011 19:41

xUSSR сериалы Братья по обмену / Сезон 2 / Серии 1-12 из 12 (Александр Жигалкин) [2014 г., комедия, SatRip] nemos
0 | 1

2 | 2276

24

04.01.2015 22:43



Последний раз редактировалось: nemos (16.03.2015 07:45), всего редактировалось 5 раз(а)

nemos Пол:Муж

14-Ноя-2013 14:11

Торрент обновлён! Добавлены серии:9-10

yurik1966 Пол:Муж

17-Ноя-2013 15:06

спасибо

Яндекс.Метрика powered by Sphinx


В Н И М А Н И Е
Сайт не распространяет и не хранит электронные версии произведений, а лишь бесплатно и без коммерческой выгоды (не требуя взамен платы,
SMS и т.д.) предоставляет доступ к создаваемому пользователями каталогу ссылок на торрент-файлы, которые содержат только списки хеш-сумм.
Убедительная просьба с жалобами обращаться напрямую к пользователю, разместившему торрент файл.

Вверх