Loading...
Error

Пятницкий. Глава третья / Серии 1-30 (30) (Григорий Фёдоров, Мичислав Юзовский) [2013 г., Детектив, криминал, драма, SatRip]

Статистика раздачи
Размер:  16,4 GB   |    Зарегистрирован:  3 года   |    Скачан:  13 раз
Сидов:  2  |  20 KB/s  ]   Личеров:  0  |  0 KB/s  ]

* - сиды/пиры с внешних источников

   
 
Автор Сообщение

nemos Пол:Муж

06-Ноя-2013 20:20

Пятницкий. Глава третья


Год выпуска: 2013
Жанр: Детектив, криминал, драма
Страна: Россия
Режиссер: Мичислав Юзовский
В ролях: Виктория Тарасова, Владислав Котлярский, Денис Рожков, Дмитрий Мазуров, Анна Липко, Антон Батырев, Георгий Тополага, Виктория Герасимова, Андрей Сорока, Антон Афанасьев, Сергей Гурьев, Павел Мисаилов, Сандра Элиава, Игорь Стам, Роман Гапанюк, Александр Бобров, Мария Рассказова, Степан Рожнов, Денис Жариков
Сюжет фильма:
В новой главе героям "Пятницкого" придется самим выступить в роли палачей. Зиминой и ее товарищам предстоит убедиться в очередной раз: если существующие законы не позволяют добиться справедливости, их нужно переписать под себя. И теперь наши герои выбирают новый инструмент написания таких "законов" - голосование. Путем голосования они определяют судьбы тех или иных преступников, когда того требуют обстоятельства. Это еще больше сплачивает сотрудников Отдела, приближая их небольшую слаженную команду к настоящей анархической группе, которая контролирует целый район Москвы... Но действительно ли всем по душе и по плечу окажется их новая роль? Все ли будут готовы идти до конца за Зиминой, методы которой становятся все жестче и решительнее? Нет, разлад в коллективе неизбежен. Неизбежны и жертвы. На что будет готова пойти Зимина, чтобы сохранить друзей и поддержать мир и спокойствие на "земле Пятницкого"?


Качество видео: SatRip

Продолжительность: 00:44:13 серия
Формат: AVI
Видео: XviD, 720x448, 1644 kbps
Аудио: русский, MP3 2.0, 128 kbps

Код:

D:\Фильмы (роздача)\Pyatnetskiy.3.2013SATRip\Pyatnetskiy.3.(30.Seriya).2013.SATRip.avi
   General
      Complete name : D:\Фильмы (роздача)\Pyatnetskiy.3.2013SATRip\Pyatnetskiy.3.(30.Seriya).2013.SATRip.avi
      Format : AVI
      Format/Info : Audio Video Interleave
      File size : 564 MiB
      Duration : 44mn 13s
      Overall bit rate : 1 782 Kbps
      Writing library : VirtualDub build 34807/release
   Video #0
      ID : 0
      Format : MPEG-4 Visual
      Format profile : Advanced Simple@L5
      Format settings, BVOP : 2
      Format settings, QPel : No
      Format settings, GMC : No warppoints
      Format settings, Matrix : Default (H.263)
      Muxing mode : Packed bitstream
      Codec ID : XVID
      Codec ID/Hint : XviD
      Duration : 44mn 13s
      Bit rate : 1 644 Kbps
      Width : 720 pixels
      Height : 448 pixels
      Display aspect ratio : 1.607
      Frame rate : 25.000 fps
      Color space : YUV
      Chroma subsampling : 4:2:0
      Bit depth : 8 bits
      Scan type : Progressive
      Compression mode : Lossy
      Bits/(Pixel*Frame) : 0.204
      Stream size : 520 MiB (92%)
      Writing library : XviD 64
   Audio #1
      ID : 1
      Format : MPEG Audio
      Format version : Version 1
      Format profile : Layer 3
      Mode : Joint stereo
      Mode extension : MS Stereo
      Codec ID : 55
      Codec ID/Hint : MP3
      Duration : 44mn 13s
      Bit rate mode : Constant
      Bit rate : 128 Kbps
      Channel(s) : 2 channels
      Sampling rate : 48.0 KHz
      Compression mode : Lossy
      Stream size : 40.5 MiB (7%)
      Alignment : Split accross interleaves
      Interleave, duration : 40 ms (1.00 video frame)
      Interleave, preload duration : 500 ms


picpicpicpicpicpicpicpicpicpic
Для увеличения картинки щелкните мышкой по превью

Этот торрент недоступен для скачивания без регистрации, однако доступен по публичной magnet-ссылке (источники с публичных трекеров). Перед использованием ссылки прочтите, пожалуйста Пользовательское соглашение, а также как можно дольше оставайтесь на раздаче! Для того, чтобы скачать сам торрент-файл (который видит больше источников), а также для того, чтобы поблагодарить релизера, вам необходимо зарегистрироваться. Если регистрироваться лень - вы можете также попробовать скачать релиз по нашим партнерским ссылкам ниже.

[underverse.su].t33617.torrent
Трекер: Зарегистрирован   [ 29.11.2013 14:56 ]  

Статус: проверено (by 90ytr90 at 29.11.2013 16:55)
Поблагодарили: 5 человек
Тип торрента: публичный - доступные источники с открытых трекеров: 
Размер: 16,4 GB (занимает 3,75 DVDR, для записи нужно 4 болванки DVDR/RW)
 
 
Похожие темы
Форум Тема Автор Торрент Отв. Посл. сооб.
xUSSR сериалы Пятницкий. Глава вторая / Серии: 1-32(32) (Илья Куликов) [2012, Детектив, Драма, Криминал, SATRip] nemos
0 | 0

25 | 2565

5

11.02.2015 09:11

xUSSR сериалы Пятницкий. Глава четвертая (1-32 серия из 32) (Григорий Федоров, Олег Галин) [2014 г., драма, криминал, SatRip] nemos
4 | 2

2 | 1749

12

18.11.2014 08:53



Последний раз редактировалось: nemos (06.11.2014 09:38), всего редактировалось 15 раз(а)

nemos Пол:Муж

11-Ноя-2013 16:20

Добавлены серии: 27-28-29-30

Яндекс.Метрика powered by Sphinx


В Н И М А Н И Е
Сайт не распространяет и не хранит электронные версии произведений, а лишь бесплатно и без коммерческой выгоды (не требуя взамен платы,
SMS и т.д.) предоставляет доступ к создаваемому пользователями каталогу ссылок на торрент-файлы, которые содержат только списки хеш-сумм.
Убедительная просьба с жалобами обращаться напрямую к пользователю, разместившему торрент файл.

Вверх