Loading...
Error

Шеф 2 / Серии 1-32 (32) ( Олег Ларин) [2013 г., Боевик, криминал, детектив, SatRip]

Статистика раздачи
Размер:  18,68 GB   |    Зарегистрирован:  1 год 2 месяца   |    Скачан:  11 раз

Полного источника не было: 1 месяц 5 дней

Сидов:  0  |  0 KB/s  ]   Личеров:  0  |  0 KB/s  ]

* - сиды/пиры с внешних источников

   
 
Автор Сообщение

nemos Пол:Муж

06-Ноя-2013 17:32

Шеф 2


Год выпуска: 2013
Жанр: Боевик, криминал, детектив
Страна: Россия
Режиссер: Олег Ларин
В ролях: Андрей Чубченко, Кирилл Полухин, Ян Цапник, Эльдар Лебедев, Татьяна Колганова, Сергей Апрельский, Татьяна Черкасова, Елизавета Карнаух, Михаил Трясоруков, Полина Булычёва, Сергей Шкарбан, Владислав Резник, Игорь Павлов, Дмитрий Белов, Константин Фисенко, Анна Табанина, Евгения Игумнова, Дмитрий Сутырин, Владимир Сута, Алексей Макрецкий, Александр Загребин, Сергей Кошонин, Роман Притула, Дмитрий Мурашев, Александр Петров (X), Виктор Чупров, Руслан Кацагаджиев, Глеб Челищев, Евгений Булгаков, Максим Меркулов (II), Александр Ситников, Сергей Воробьёв (IV), Елена Тепляшина, Евгений Добряков, Ирина Обрезкова, Егор Кутенков, Стэнли Красовицки
Сюжет фильма:
Полковник полиции Виктор Расторгуев осужден за превышение должностных полномочий и отбывает наказание в одной из колоний. Там он близко сходится с бывшим майором МВД Карпатовым, осуждённым за вымогательство. Считается, что он взял всю вину на себя, чтобы не подставить непосредственного начальника – полковника Дмитрия Холодилова, ныне влиятельного генерала системы МВД. Отсидев полтора года, Расторгуев получает возможность выйти на свободу. Но на свободе Расторгуева никто не ждёт: близкие и друзья отвернулись от него... Операция Департамента собственной безопасности МВД по внедрению полковника в окружение генерала Холодилова вступает в завершающую фазу, однако внедренный в преступную группировку штатный негласный сотрудник МВД очень скоро поймет, что в этих смертельных играх он может верить только старым проверенным товарищам, и скоро ему понадобится их помощь и поддержка…


Качество видео: SatRip

Продолжительность: 00:46:43 серия
Формат: AVI
Видео: XviD, 704х400, 1645 kbps
Аудио: русский, MP3 2.0, 192 kbps

Код:

D:\Фильмы (роздача)\Shef-2.(2013).XviD.SATRip.Shuriman\Shef-2.(32.seriya.iz.32).2013.XviD.SATRip.Shuriman.avi
   General
      Complete name : D:\Фильмы (роздача)\Shef-2.(2013).XviD.SATRip.Shuriman\Shef-2.(32.seriya.iz.32).2013.XviD.SATRip.Shuriman.avi
      Format : AVI
      Format/Info : Audio Video Interleave
      File size : 617 MiB
      Duration : 46mn 43s
      Overall bit rate : 1 847 Kbps
      Writing application : VirtualDubMod 1.5.10.3 (build 2550/release)
      Writing library : VirtualDubMod build 2550/release
      Copyright : Shuriman
   Video #0
      ID : 0
      Format : MPEG-4 Visual
      Format profile : Advanced Simple@L5
      Format settings, BVOP : 2
      Format settings, QPel : No
      Format settings, GMC : No warppoints
      Format settings, Matrix : Default (H.263)
      Muxing mode : Packed bitstream
      Codec ID : XVID
      Codec ID/Hint : XviD
      Duration : 46mn 43s
      Bit rate : 1 645 Kbps
      Width : 704 pixels
      Height : 400 pixels
      Display aspect ratio : 16:9
      Frame rate : 25.000 fps
      Color space : YUV
      Chroma subsampling : 4:2:0
      Bit depth : 8 bits
      Scan type : Progressive
      Compression mode : Lossy
      Bits/(Pixel*Frame) : 0.234
      Stream size : 550 MiB (89%)
      Writing library : XviD 64
   Audio #1
      ID : 1
      Format : MPEG Audio
      Format version : Version 1
      Format profile : Layer 3
      Mode : Joint stereo
      Codec ID : 55
      Codec ID/Hint : MP3
      Duration : 46mn 43s
      Bit rate mode : Constant
      Bit rate : 192 Kbps
      Channel(s) : 2 channels
      Sampling rate : 48.0 KHz
      Compression mode : Lossy
      Stream size : 64.2 MiB (10%)
      Alignment : Split accross interleaves
      Interleave, duration : 40 ms (1.00 video frame)
      Interleave, preload duration : 500 ms
Семпл: http://multi-up.com/920796

picpicpicpic
Для увеличения картинки щелкните мышкой по превью

Этот торрент недоступен для скачивания без регистрации, однако доступен по публичной magnet-ссылке (источники с публичных трекеров). Перед использованием ссылки прочтите, пожалуйста Пользовательское соглашение, а также как можно дольше оставайтесь на раздаче! Для того, чтобы скачать сам торрент-файл (который видит больше источников), а также для того, чтобы поблагодарить релизера, вам необходимо зарегистрироваться. Если регистрироваться лень - вы можете также попробовать скачать релиз по нашим партнерским ссылкам ниже.

[underverse.su].t58320.torrent
Трекер: Зарегистрирован   [ 17.09.2015 22:27 ]  

Статус: проверено (by nemos at 17.09.2015 22:27)
Поблагодарили: 3 человека
Тип торрента: публичный - доступные источники с открытых трекеров: 
Размер: 18,68 GB (занимает 4,27 DVDR, для записи нужно 5 болванок DVDR/RW)
 
 


Последний раз редактировалось: nemos (17.09.2015 22:27), всего редактировалось 17 раз(а)

nemos Пол:Муж

17-Сен-2015 22:29

Торрент обновлён! Мультитрекерная раздача.

Яндекс.Метрика powered by Sphinx


В Н И М А Н И Е
Сайт не распространяет и не хранит электронные версии произведений, а лишь бесплатно и без коммерческой выгоды (не требуя взамен платы,
SMS и т.д.) предоставляет доступ к создаваемому пользователями каталогу ссылок на торрент-файлы, которые содержат только списки хеш-сумм.
Убедительная просьба с жалобами обращаться напрямую к пользователю, разместившему торрент файл.

Вверх