Loading...
Error

Убить Боба / Killer Bean Forever (Джефф Лью / Jeff Lew) [2009 г., мультфильм, боевик, комедия, криминал, детектив, BDRip-AVC 720p] DVO (R5) + Original

Статистика раздачи
Размер:  1,69 GB   |    Зарегистрирован:  3 года 1 месяц   |    Скачан:  12 раз

Полного источника не было: 5 месяцев 13 дней

Сидов:  0  |  0 KB/s  ]   Личеров:  0  |  0 KB/s  ]

* - сиды/пиры с внешних источников

   
 
Автор Сообщение

garry Пол:Муж

04-Ноя-2013 22:57

Убить Боба / Killer Bean Forever

Год выпуска: 2009
Страна: США
Жанр: мультфильм, боевик, комедия, криминал, детектив
Продолжительность: 01:25:55
Перевод: профессиональный (двухголосый закадровый, R5)
Cубтитры: нет

Режиссер: Джефф Лью / Jeff Lew

Роли озвучивали: Вегас Е. Трип, Брайан Сешн, Дэвид Гилметт, Мэттью Тайлер

Описание: Встречайте КИЛЛЕРа БОБА — самого безжалостного, отчаянного и ослепительного наемного убийцу из всех, когда-либо живших в Бобтауне! С невероятным вооруженным артистизмом и ошеломляющим военным мастерством Киллер Боб атакует убежище бандитов. Главарь банды, Каппучино, испуганный нападением на свое прибежище, жаждет возмездия.
Детектив Кромвелл, уставший от Каппучино, стоит перед тяжелым выбором — задержать Киллер Боба или одобрить его незаконную деятельность. Киллер Бобу не нужны друзья, а вскоре он понимает, что их у него и нет, когда узнает, что агентство, на которое он работает, заказало его убийство.
Доп. информация:
IMDb: 5.9/10
Kinopoisk: 5.990/10
Sample
Качество: BDRip-AVC (BDRemux @ hdclub])
Формат: MKV
Видео кодек: H.264
Аудио кодек: AC3
Видео: 1280x720 (16/9), 2233 kbps, 23.976 fps
Аудио №1: Russian, AC3, 2ch, 48 kHz, 192 kbps (Двухголосый, R5)
Аудио №2: English, AC3, 6ch, 48 kHz, 384 kbps (Оригинал)
Format : Matroska
Format version : Version 4 / Version 2
File size : 1.69 GiB
Duration : 1h 25mn
Overall bit rate : 2 811 Kbps
Movie name : Killer Bean Forever (2009) BDRip
Encoded date : UTC 2013-03-15 13:54:30
Writing application : mkvmerge v6.1.0 ('Old Devil') built on Mar 2 2013 14:32:37
Writing library : libebml v1.3.0 + libmatroska v1.4.0
Attachment : Yes

Video
ID : 1
Format : AVC
Format/Info : Advanced Video Codec
Format profile : High@L4.1
Format settings, CABAC : Yes
Format settings, ReFrames : 9 frames
Codec ID : V_MPEG4/ISO/AVC
Duration : 1h 25mn
Bit rate : 2 179 Kbps
Width : 1 280 pixels
Height : 720 pixels
Display aspect ratio : 16:9
Frame rate mode : Constant
Frame rate : 23.976 fps
Color space : YUV
Chroma subsampling : 4:2:0
Bit depth : 8 bits
Scan type : Progressive
Bits/(Pixel*Frame) : 0.099
Stream size : 1.31 GiB (78%)
Writing library : x264 core 130 r2273kMod b3065e6
Encoding settings : cabac=1 / ref=9 / deblock=1:-1:-1 / analyse=0x3:0x133 / me=tesa / subme=11 / psy=1 / fade_compensate=0.90 / psy_rd=0.85:0.01 / mixed_ref=1 / me_range=48 / chroma_me=1 / trellis=2 / 8x8dct=1 / cqm=0 / deadzone=21,11 / fast_pskip=0 / chroma_qp_offset=-3 / threads=6 / lookahead_threads=1 / sliced_threads=0 / nr=0 / decimate=1 / interlaced=0 / bluray_compat=0 / constrained_intra=0 / bframes=12 / b_pyramid=2 / b_adapt=2 / b_bias=0 / direct=1 / weightb=1 / open_gop=0 / weightp=2 / keyint=250 / keyint_min=23 / scenecut=40 / intra_refresh=0 / rc_lookahead=150 / rc=crf / mbtree=1 / crf=18.5000 / qcomp=0.75 / qpmin=0 / qpmax=69 / qpstep=4 / vbv_maxrate=50000 / vbv_bufsize=62500 / crf_max=0.0 / nal_hrd=none / ip_ratio=1.20 / aq=2:0.80
Language : English
Default : Yes
Forced : No
Matrix coefficients : BT.709

Audio #1
ID : 2
Format : AC-3
Format/Info : Audio Coding 3
Mode extension : CM (complete main)
Format settings, Endianness : Big
Codec ID : A_AC3
Duration : 1h 25mn
Bit rate mode : Constant
Bit rate : 192 Kbps
Channel(s) : 2 channels
Channel positions : Front: L R
Sampling rate : 48.0 KHz
Bit depth : 16 bits
Compression mode : Lossy
Stream size : 118 MiB (7%)
Title : DVO (R5)
Language : Russian
Default : Yes
Forced : No

Audio #2
ID : 3
Format : AC-3
Format/Info : Audio Coding 3
Mode extension : CM (complete main)
Format settings, Endianness : Big
Codec ID : A_AC3
Duration : 1h 25mn
Bit rate mode : Constant
Bit rate : 384 Kbps
Channel(s) : 6 channels
Channel positions : Front: L C R, Side: L R, LFE
Sampling rate : 48.0 KHz
Bit depth : 16 bits
Compression mode : Lossy
Stream size : 236 MiB (14%)
Title : Original
Language : English
Default : No
Forced : No

Menu
00:00:00.000 : en:
00:05:58.660 : en:
00:13:06.213 : en:
00:24:05.247 : en:
00:31:38.283 : en:
00:38:27.065 : en:
00:44:09.492 : en:
00:52:39.251 : en:
01:01:48.800 : en:
01:10:16.890 : en:
01:17:07.343 : en:
01:23:55.751 : en:
x264 [info]: frame I:984 Avg QP:16.84 size: 78417
x264 [info]: frame P:27500 Avg QP:19.19 size: 24524
x264 [info]: frame B:95122 Avg QP:21.46 size: 7229
x264 [info]: consecutive B-frames: 2.5% 3.3% 4.7% 32.2% 13.4% 25.1% 5.9% 11.6% 0.9% 0.3% 0.1% 0.1% 0.1%
x264 [info]: mb I I16..4: 10.5% 75.4% 14.1%
x264 [info]: mb P I16..4: 1.0% 5.3% 0.9% P16..4: 36.1% 35.4% 9.1% 1.0% 0.1% skip:11.0%
x264 [info]: mb B I16..4: 0.1% 0.4% 0.1% B16..8: 33.0% 13.8% 1.5% direct: 2.8% skip:48.3% L0:43.5% L1:49.1% BI: 7.4%
x264 [info]: 8x8 transform intra:73.4% inter:71.8%
x264 [info]: coded y,uvDC,uvAC intra: 82.9% 67.1% 39.6% inter: 14.7% 7.2% 1.4%
x264 [info]: i16 v,h,dc,p: 7% 10% 2% 81%
x264 [info]: i8 v,h,dc,ddl,ddr,vr,hd,vl,hu: 7% 11% 2% 10% 15% 13% 16% 11% 15%
x264 [info]: i4 v,h,dc,ddl,ddr,vr,hd,vl,hu: 9% 11% 3% 9% 16% 13% 16% 10% 13%
x264 [info]: i8c dc,h,v,p: 26% 35% 19% 20%
x264 [info]: Weighted P-Frames: Y:1.2% UV:0.8%
x264 [info]: ref P L0: 52.2% 7.5% 19.1% 5.7% 5.1% 3.5% 3.3% 1.6% 1.8% 0.2% 0.0%
x264 [info]: ref B L0: 80.4% 9.9% 4.1% 2.0% 1.4% 1.2% 0.7% 0.3%
x264 [info]: ref B L1: 94.4% 5.6%
x264 [info]: kb/s:2233.28
x264 [info]: encoded 123606 frames, 1.63 fps, 2233.28 kb/s, duration 21:06:59.61

pic pic pic
Для увеличения картинки щелкните мышкой по превью

Релиз от группы

Этот торрент недоступен для скачивания без регистрации, однако доступен по публичной magnet-ссылке (источники с публичных трекеров). Перед использованием ссылки прочтите, пожалуйста Пользовательское соглашение, а также как можно дольше оставайтесь на раздаче! Для того, чтобы скачать сам торрент-файл (который видит больше источников), а также для того, чтобы поблагодарить релизера, вам необходимо зарегистрироваться. Если регистрироваться лень - вы можете также попробовать скачать релиз по нашим партнерским ссылкам ниже.

[underverse.su].t32700.torrent
Трекер: Зарегистрирован   [ 04.11.2013 22:57 ]  

Статус: проверено (by garry at 04.11.2013 22:58)
Поблагодарили: 1 человек
Тип торрента: публичный - доступные источники с открытых трекеров: 
Размер: 1,69 GB (занимает 0,39 DVDR, для записи нужно 1 болванка DVDR/RW)
 
 
Похожие темы
Форум Тема Автор Торрент Отв. Посл. сооб.
* Архив Убить Боба / Killer Bean Forever (Джефф Лью) [2009 г., боевик, мультфильм, криминал, детектив, DVDRip] vyache1977

9 | 1548

30.08.2010 00:06

04-Ноя-2013 22:57

Топик был перенесен из форума Зарубежное кино [DVDRip, Low-Res HDRip, и т.д.] в форум Зарубежные мультфильмы

Причина переноса: упсь
gari
 

Яндекс.Метрика powered by Sphinx


В Н И М А Н И Е
Сайт не распространяет и не хранит электронные версии произведений, а лишь бесплатно и без коммерческой выгоды (не требуя взамен платы,
SMS и т.д.) предоставляет доступ к создаваемому пользователями каталогу ссылок на торрент-файлы, которые содержат только списки хеш-сумм.
Убедительная просьба с жалобами обращаться напрямую к пользователю, разместившему торрент файл.

Вверх