Loading...
Error

Живая Тема - НЛО [2013 г., документальный, TVRip]

Статистика раздачи
Размер:  523 MB   |    Зарегистрирован:  3 года 1 месяц   |    Скачан:  10 раз
Сидов:  1  |  0 KB/s  ]   Личеров:  0  |  0 KB/s  ]

* - сиды/пиры с внешних источников

   
 
Автор Сообщение

матроскин Пол:Муж

02-Ноя-2013 09:37

Живая Тема - НЛО


Год выпуска: 2013
Жанр: документальный
Страна: Россия
Выпущено: Телеканал РЕН-ТВ
Ведущий: Игорь Прокопенко
Сюжет фильма:
Записи уникального документа свидетельствуют, что советские спецслужбы активно занимались проблемой НЛО, вступали в контакты, собирали сведения. Смотрите интересный фильм, а выводы сделайте сами.
Качество видео: TVRip

Продолжительность: 00:47:35
Формат: avi
Видео: xvid, 634x360, 1269 kbps
Аудио: русский, оригинал, MP3 2.0, 256 kbps

Код:

General
Complete name                    : C:\Users\Security\Desktop\Живая тема. 17.06.2013.avi
Format                           : AVI
Format/Info                      : Audio Video Interleave
File size                        : 523 MiB
Duration                         : 47mn 35s
Overall bit rate                 : 1 538 Kbps
Writing application              : Lavf52.93.0

Video
Format                           : xvid
Codec ID                         : xvid
Duration                         : 47mn 35s
Bit rate                         : 1 270 Kbps
Width                            : 634 pixels
Height                           : 360 pixels
Display aspect ratio             : 16/9
Frame rate                       : 25.000 fps
Resolution                       : 24 bits
Bits/(Pixel*Frame)               : 0.222
Stream size                      : 432 MiB (83%)

Audio
ID                               : 1
Format                           : MPEG Audio
Format version                   : Version 1
Format profile                   : Layer 3
Codec ID                         : 55
Codec ID/Hint                    : MP3
Duration                         : 47mn 35s
Bit rate mode                    : Constant
Bit rate                         : 256 Kbps
Channel(s)                       : 2 channels
Sampling rate                    : 44.1 KHz
Resolution                       : 16 bits
Stream size                      : 87.1 MiB (17%)
Alignment                        : Aligned on interleaves
Interleave, duration             : 26 ms (0.65 video frame)
Writing library                  : LAME3.98.4

picpicpicpicpicpic
Для увеличения картинки щелкните мышкой по превью

Этот торрент недоступен для скачивания без регистрации, однако доступен по публичной magnet-ссылке (источники с публичных трекеров). Перед использованием ссылки прочтите, пожалуйста Пользовательское соглашение, а также как можно дольше оставайтесь на раздаче! Для того, чтобы скачать сам торрент-файл (который видит больше источников), а также для того, чтобы поблагодарить релизера, вам необходимо зарегистрироваться. Если регистрироваться лень - вы можете также попробовать скачать релиз по нашим партнерским ссылкам ниже.

[underverse.su].t32594.torrent
Трекер: Зарегистрирован   [ 02.11.2013 09:37 ]  

Статус: проверено (by матроскин at 02.11.2013 09:39)
Поблагодарили: 6 человек
Тип торрента: публичный - доступные источники с открытых трекеров: 
Размер: 523 MB (занимает 0,12 DVDR, для записи нужно 1 болванка DVDR/RW)
 
 

матроскин Пол:Муж

02-Ноя-2013 09:39

Качайте и смотрите интересное документальное кино

Яндекс.Метрика powered by Sphinx


В Н И М А Н И Е
Сайт не распространяет и не хранит электронные версии произведений, а лишь бесплатно и без коммерческой выгоды (не требуя взамен платы,
SMS и т.д.) предоставляет доступ к создаваемому пользователями каталогу ссылок на торрент-файлы, которые содержат только списки хеш-сумм.
Убедительная просьба с жалобами обращаться напрямую к пользователю, разместившему торрент файл.

Вверх