Loading...
Error

Уральские Пельмени. Люди в белых зарплатах. Часть 2 (Эфир 01.11.2013) [2013 г., Юмористическое шоу, SATRip-AVC]

Статистика раздачи
Размер:  746 MB   |    Зарегистрирован:  4 года   |    Скачан:  29 раз

Полного источника не было: 1 год 1 месяц

Сидов:  0  |  0 KB/s  ]   Личеров:  0  |  0 KB/s  ]

* - сиды/пиры с внешних источников

   
 
Автор Сообщение

bredd82 Пол:Муж

02-Ноя-2013 07:33

Уральские Пельмени. Люди в белых зарплатах. Часть 2
Год выпуска: 2013
Страна: Россия, YBW Group, СТС
Жанр: Юмористическое шоу
Продолжительность: 00:48:32
Эфир: 01.11.2013

Участники: Дмитрий Брекоткин, Сергей Ершов, Сергей Исаев, Сергей Калугин, Сергей Минеев, Вячеслав Мясников, Сергей Нетиевский, Александр Попов, Андрей Рожков, Дмитрий Соколов, Максим Ярица, Юлия Михалкова

Описание: Люди в белых зарплатах - ведь каждый из нас знает что такое, больница или поликлиника, кто такие врачи и медсестры, чем нас лечат и как. Команда Уральские пельмени знают об этом на много больше и покажут нам всю подноготную в юмористическом жанре, не в обиду медперсоналу. Ведь порой врачи, как говорят, берут "белую зарплату". Об этом мы узнаем в новом шоу Уральских пельменей: "Люди в белых зарплатах".

Качество: SATRip-AVC
Формат: MKV

Видео: 704 x 400 (1.77:1), 25.00 fps, MPEG-4 AVC, ~1 950 kbps avg, 0.277 bit/pixel
Аудио: 48 kHz, AC3 Dolby Digital, 2/0 (L,R) ch, ~192.00 kbps avg


- доработка годового бюджета в областной администрации
- у билетной кассы в цирк
- счастливый ребенок из очереди в детский сад через 16 лет
- получение подписей на законодательные документы
- песня-ответ от того самого мужчины певице Натали
- бабки у раскрытого чемодана бабок
- моряки-подводники о проблемах мирового климата
- песня о бюджетниках


Общее
Уникальный идентификатор : 230406526466155230824802203448232647444 (0xAD56AED09739AAAEA637D61C4A201B14)
Полное имя : C:\Lyudi v belyx zarplatax 2013\Lyudi.v.belyx.zarplatax_2.2013.x264.AVC.mkv
Формат : Matroska
Версия формата : Version 4 / Version 2
Размер файла : 746 Мбайт
Продолжительность : 48 м.
Общий поток : 2148 Кбит/сек
Название фильма : Уральские Пельмени. Люди в белых зарплатах. Часть 2 / 2013 -=NN@LIFE=-
Дата кодирования : UTC 2013-11-01 20:27:40
Программа кодирования : mkvmerge v6.5.0 ('Isn't she lovely') built on Oct 20 2013 12:50:05
Библиотека кодирования : libebml v1.3.0 + libmatroska v1.4.1

Видео
Идентификатор : 1
Формат : AVC
Формат/Информация : Advanced Video Codec
Профиль формата : High@L4.1
Параметр CABAC формата : Да
Параметр ReFrames формата : 8 кадров
Идентификатор кодека : V_MPEG4/ISO/AVC
Продолжительность : 48 м.
Битрейт : 1953 Кбит/сек
Ширина : 704 пикселя
Высота : 400 пикселей
Соотношение сторон : 16:9
Режим частоты кадров : Постоянный
Частота кадров : 25,000 кадров/сек
Цветовое пространство : YUV
Субдискретизация насыщенности : 4:2:0
Битовая глубина : 8 бит
Тип развёртки : Прогрессивная
Бит/(Пиксели*Кадры) : 0.277
Размер потока : 664 Мбайт (89%)
Библиотека кодирования : x264 core 133 r2334 a3ac64b
Настройки программы : cabac=1 / ref=8 / deblock=1:-2:-1 / analyse=0x3:0x113 / me=umh / subme=9 / psy=1 / psy_rd=1.00:0.10 / mixed_ref=1 / me_range=32 / chroma_me=1 / trellis=2 / 8x8dct=1 / cqm=0 / deadzone=21,11 / fast_pskip=1 / chroma_qp_offset=-2 / threads=4 / lookahead_threads=1 / sliced_threads=0 / nr=0 / decimate=1 / interlaced=0 / bluray_compat=0 / constrained_intra=0 / bframes=8 / b_pyramid=2 / b_adapt=2 / b_bias=0 / direct=3 / weightb=1 / open_gop=0 / weightp=2 / keyint=250 / keyint_min=25 / scenecut=40 / intra_refresh=0 / rc_lookahead=50 / rc=2pass / mbtree=0 / bitrate=1953 / ratetol=1.0 / qcomp=0.70 / qpmin=0 / qpmax=69 / qpstep=4 / cplxblur=20.0 / qblur=0.5 / vbv_maxrate=50000 / vbv_bufsize=62500 / nal_hrd=none / ip_ratio=1.40 / pb_ratio=1.30 / aq=1:1.00
Язык : Russian
Default : Да
Forced : Нет

Аудио
Идентификатор : 2
Формат : AC-3
Формат/Информация : Audio Coding 3
Расширение режима : CM (complete main)
Параметр Endianness формата : Big
Идентификатор кодека : A_AC3
Продолжительность : 48 м.
Вид битрейта : Постоянный
Битрейт : 192 Кбит/сек
Каналы : 2 канала
Расположение каналов : Front: L R
Частота : 48,0 КГц
Битовая глубина : 16 бит
Метод сжатия : С потерями
Размер потока : 66,7 Мбайт (9%)
Язык : Russian
Default : Да
Forced : Нет


picpicpicpic
:lol: :D :D :D :lol:

Этот торрент недоступен для скачивания без регистрации, однако доступен по публичной magnet-ссылке (источники с публичных трекеров). Перед использованием ссылки прочтите, пожалуйста Пользовательское соглашение, а также как можно дольше оставайтесь на раздаче! Для того, чтобы скачать сам торрент-файл (который видит больше источников), а также для того, чтобы поблагодарить релизера, вам необходимо зарегистрироваться. Если регистрироваться лень - вы можете также попробовать скачать релиз по нашим партнерским ссылкам ниже.

[underverse.su].t32592.torrent
Трекер: Зарегистрирован   [ 02.11.2013 07:33 ]  

Статус: проверено (by 90ytr90 at 02.11.2013 09:33)
Поблагодарили: 1 человек
Тип торрента: публичный - доступные источники с открытых трекеров: 
Размер: 746 MB (занимает 0,17 DVDR, для записи нужно 1 болванка DVDR/RW)
 
 
Похожие темы
Форум Тема Автор Торрент Отв. Посл. сооб.
ПостКВН Уральские пельмени - Грачи пролетели (2 часть) [21.03.2014, Юмор, SATRip] Мedved
0 | 0

0 | 2371

66

21.03.2014 13:26

ПостКВН Уральские Пельмени (В гостях у скалки) (2010) SATRip [2010 г., Юмор, SatRip] SHuRuP
0 | 0

1 | 2130

11

07.03.2010 04:47

ПостКВН Уральские Пельмени (Гори оно всё...конём) (2009) QWERTY.TVRip [2009 г., Юмор, QWERTY.TVRip] SHuRuP
0 | 0

1 | 2470

4

26.12.2009 09:03

ПостКВН Уральские Пельмени (Смешняги) (2009) SATRip [2009 г., Юмор, SatRip] SHuRuP
0 | 0

1 | 2731

4

28.11.2010 21:32

ПостКВН Уральские Пельмени (Шагом фарш!) (2010) SATRip [2010 г., Юмор, SatRip] SHuRuP
0 | 0

3 | 3615

8

06.11.2014 18:38

ПостКВН Уральские Пельмени (Агенты 0,7) (2010) SATRip [2010 г., Юмор, SatRip] SHuRuP
0 | 0

1 | 1726

2

13.12.2011 05:20

ПостКВН Уральские Пельмени (Падал прошлогодний смех) (2009) SATRip [2009 г., Юмор, SatRip] SHuRuP
0 | 0

0 | 1931

2

23.02.2010 20:37

ПостКВН Уральские Пельмени (Весь апрель Никому…) (2010) SATRip [2010 г., Юмор, SatRip] SHuRuP
0 | 0

0 | 3000

59

24.04.2010 15:22

ПостКВН Уральские Пельмени (По уши в ЕГЭ) (2010) IPTVRip [2010 г., Юмор, IPTVRip] SHuRuP
0 | 0

0 | 2174

8

15.05.2010 12:05

ПостКВН Уральские Пельмени (Как я провел ЭТО!) (2010) IPTVRip [2010 г., Юмор, IPTVRip] SHuRuP
0 | 0

1 | 3224

44

12.10.2010 17:35


Яндекс.Метрика powered by Sphinx


В Н И М А Н И Е
Сайт не распространяет и не хранит электронные версии произведений, а лишь бесплатно и без коммерческой выгоды (не требуя взамен платы,
SMS и т.д.) предоставляет доступ к создаваемому пользователями каталогу ссылок на торрент-файлы, которые содержат только списки хеш-сумм.
Убедительная просьба с жалобами обращаться напрямую к пользователю, разместившему торрент файл.

Вверх