Loading...
Error

Околофутбола (Антон Борматов) [2013 г., драма, криминал, DVDRip]

Статистика раздачи
Размер:  745 MB   |    Зарегистрирован:  3 года 1 месяц   |    Скачан:  8 раз

Полного источника не было: 9 месяцев

Сидов:  0  |  0 KB/s  ]   Личеров:  0  |  0 KB/s  ]

* - сиды/пиры с внешних источников

   
 
Автор Сообщение

bredd82 Пол:Муж

02-Ноя-2013 07:18

Околофутбола


«Нас не изменить!»



Страна: Россия / Фонд кино, Front Line Studio, Кинокомпания CTB
Жанр: драма, криминал
Год выпуска: 2013
Продолжительность: 01:32:57

Перевод: не требуется
Cубтитры: нет
Оригинальная аудиодорожка: русский

Режиссер: Антон Борматов

В ролях: Александр Ратников, Иван Фоминов, Григорий Иванец, Павел Ерлыков, Дарья Мингазетдинова, Юлия Маньковская, Евгений Березин, Никита Кукушкин, Сергей Шнырев, Максим Павлов...

Описание: Фильм о самой закрытой части футбольных болельщиков — околофутбольных хулиганах. Они — самые агрессивные и жестокие представители мира футбольных фанатов. Они — элита околофутбола. Кем бы они ни были в обычной жизни — студентами или банкирами, музыкантами или автомеханиками, на самом деле все они — одна «фирма». Попасть в «фирму» очень сложно, но если ты в ней оказался — это на всю жизнь. И обратного пути нет.



Качество: DVDRip / DVD9 R5
Формат: AVI

Видео: 624x352 (16:9), 25.000 fps, XVID ~983 kbps avg, 0.179 bit/pixel
Аудио: Русский 48 kHz, MP3, 2ch, 128.00 kbps Constant
Общее
Полное имя : Okolofutbola.2013.O.DVDRip.745MB_[Youtracker]_by_avproh.avi
Формат : AVI
Формат/Информация : Audio Video Interleave
Размер файла : 745 Мбайт
Продолжительность : 1 ч. 32 м.
Общий поток : 1121 Кбит/сек
Программа кодирования : VirtualDubMod 1.5.10.3 | www.virtualdub-fr.org || (build 2550/release)
Библиотека кодирования : VirtualDubMod build 2550/release

Видео
Идентификатор : 0
Формат : MPEG-4 Visual
Профиль формата : Advanced Simple@L5
Параметр BVOP формата : 1
Параметр QPel формата : Нет
Параметр GMC формата : Без точки перехода
Параметр матрицы формата : Выборочная
Идентификатор кодека : XVID
Идентификатор кодека/Подсказка : XviD
Продолжительность : 1 ч. 32 м.
Битрейт : 983 Кбит/сек
Ширина : 624 пикселя
Высота : 352 пикселя
Соотношение сторон : 16:9
Частота кадров : 25,000 кадров/сек
Цветовое пространство : YUV
Субдискретизация насыщенности : 4:2:0
Битовая глубина : 8 бит
Тип развёртки : Прогрессивная
Метод сжатия : С потерями
Бит/(Пиксели*Кадры) : 0.179
Размер потока : 653 Мбайт (88%)
Библиотека кодирования : XviD 73

Аудио
Идентификатор : 1
Формат : MPEG Audio
Версия формата : Version 1
Профиль формата : Layer 3
Идентификатор кодека : 55
Идентификатор кодека/Подсказка : MP3
Продолжительность : 1 ч. 32 м.
Вид битрейта : Постоянный
Битрейт : 128 Кбит/сек
Каналы : 2 канала
Частота : 48,0 КГц
Метод сжатия : С потерями
Размер потока : 85,1 Мбайт (11%)
Выравнивание : Соединение по промежуткам
Продолжительность промежутка : 40 мс. (1,00 видеокадр)
Время предзагрузки промежутка : 504 мс.
picpicpic

Этот торрент недоступен для скачивания без регистрации, однако доступен по публичной magnet-ссылке (источники с публичных трекеров). Перед использованием ссылки прочтите, пожалуйста Пользовательское соглашение, а также как можно дольше оставайтесь на раздаче! Для того, чтобы скачать сам торрент-файл (который видит больше источников), а также для того, чтобы поблагодарить релизера, вам необходимо зарегистрироваться. Если регистрироваться лень - вы можете также попробовать скачать релиз по нашим партнерским ссылкам ниже.

[underverse.su].t32591.torrent
Трекер: Зарегистрирован   [ 02.11.2013 07:18 ]  

Статус: проверено (by 90ytr90 at 02.11.2013 08:30)
Поблагодарили: пока никто не поблагодарил...
Тип торрента: публичный - доступные источники с открытых трекеров: 
Размер: 745 MB (занимает 0,17 DVDR, для записи нужно 1 болванка DVDR/RW)
 
 
Похожие темы
Форум Тема Автор Торрент Отв. Посл. сооб.
Наше кино [DVDRip, Low-Res HDRip, и т.д.] Околофутбола (Антон Борматов) [2013 г., Драма, криминал, TVRip] Су-34
1 | 0

2 | 2022

69

08.10.2013 15:29

Наше кино [DVDRip, Low-Res HDRip, и т.д.] Околофутбола (Антон Борматов) [2013 г., драма, криминал, DVDRip] 90ytr90
677 | 44

0 | 1588

37

30.10.2013 19:27

Наше кино [DVDRip, Low-Res HDRip, и т.д.] Околофутбола (Антон Борматов) [2013 г., драма, криминал, BDRip] 90ytr90
0 | 0

0 | 1632

29

17.11.2013 11:43

Наше кино [DVD / HDDVD / BD / Remux] Околофутбола (Антон Борматов) [2013, Россия, драма, криминал, спорт, Blu-ray disc] + Original Rus uzi2009
2 | 0

0 | 1305

2

21.03.2014 22:06

# Наше кино [HDDVDRip / BDRip / WEB-DL / HDTV 1080/720р] Околофутбола (Антон Борматов) [2013 г., драма, криминал, BDRip 720p] 90ytr90
2 | 0

1 | 1320

19

03.11.2013 11:26



Последний раз редактировалось: bredd82 (02.11.2013 11:14), всего редактировалось 1 раз

90ytr90 

02-Ноя-2013 08:30

Цитата:

Аудио: Русский 48 kHz, MP3, 2ch, 1248.00 kbps Constant
Поправить бы надо :D

Яндекс.Метрика powered by Sphinx


В Н И М А Н И Е
Сайт не распространяет и не хранит электронные версии произведений, а лишь бесплатно и без коммерческой выгоды (не требуя взамен платы,
SMS и т.д.) предоставляет доступ к создаваемому пользователями каталогу ссылок на торрент-файлы, которые содержат только списки хеш-сумм.
Убедительная просьба с жалобами обращаться напрямую к пользователю, разместившему торрент файл.

Вверх