Loading...
Error

Поезд на север / Серии 01-04 из 04 (Алексей Гусев) [2013 г., Остросюжетный сериал, драма, криминал, SatRip]

Статистика раздачи
Размер:  2,05 GB   |    Зарегистрирован:  3 года 1 месяц   |    Скачан:  30 раз

Полного источника не было: 13 дней

Сидов:  0  |  0 KB/s  ]   Личеров:  0  |  0 KB/s  ]

* - сиды/пиры с внешних источников

   
 
Автор Сообщение

nemos Пол:Муж

27-Окт-2013 18:11

Поезд на север


Год выпуска: 2013
Жанр: Остросюжетный сериал, драма, криминал
Страна: Россия
Режиссер: Алексей Гусев
В ролях: Владимир Гостюхин, Владимир Стеклов, Юрий Кузнецов, Александр Аравушкин, Софья Лебедева, Владимир Гусев, Татьяна Калих, Светлана Никифорова, Алла Пролич, Геннадий Готовчиц, Михаил Павлик
Сюжет фильма:
Бывший десантник Иван Громов живет с большой семьей на ферме в средней полосе России. Когда-то он был на хорошем счету у начальства, дома к его мнению прислушивались и уважали. Но сейчас он для окружающих словно «отработанный материал». И только внучка Лиля все еще слушается старика, любит его и заботится. Так бы и они и жили — родные по крови, но чужие по духу, — пока однажды не пришла в семью Громовых настоящая финансовая катастрофа. Чтобы спасти родных и выбраться из долговой ямы, Лиля принимает предложение руки и сердца от сына местного олигарха – алкоголика и тунеядца Валерика. Узнав об этом, дед берет с внучки обещание повременить с замужеством и отправляется в Магаданский край на золотые прииски, чтобы отыскать золото и спасти внучку от несчастливого брака. Удастся ли бывшему десантнику пройти огонь, воду и медные трубы?


Качество видео: SatRip

Продолжительность: 00:45:00 серия
Формат: AVI
Видео: XviD, 720х448, 1 492 kbps
Аудио: русский, MP3 2.0, 128 kbps

Код:

D:\Фильмы (роздача)\Poezd.na.sever.2013.SATRip.KZ\Poezd.na.sever.04.2013.SATRip.KZ.avi
   General
      Complete name : D:\Фильмы (роздача)\Poezd.na.sever.2013.SATRip.KZ\Poezd.na.sever.04.2013.SATRip.KZ.avi
      Format : AVI
      Format/Info : Audio Video Interleave
      File size : 525 MiB
      Duration : 45mn 0s
      Overall bit rate : 1 630 Kbps
      Writing application : VirtualDubMod 1.5.10.2 (build 2540/release)
      Writing library : VirtualDub build 32507/release
   Video #0
      ID : 0
      Format : MPEG-4 Visual
      Format profile : Advanced Simple@L5
      Format settings, BVOP : 2
      Format settings, QPel : No
      Format settings, GMC : No warppoints
      Format settings, Matrix : Default (MPEG)
      Codec ID : XVID
      Codec ID/Hint : XviD
      Duration : 45mn 0s
      Bit rate : 1 492 Kbps
      Width : 720 pixels
      Height : 448 pixels
      Display aspect ratio : 1.607
      Frame rate : 25.000 fps
      Color space : YUV
      Chroma subsampling : 4:2:0
      Bit depth : 8 bits
      Scan type : Progressive
      Compression mode : Lossy
      Bits/(Pixel*Frame) : 0.185
      Stream size : 480 MiB (92%)
      Writing library : XviD 64
   Audio #1
      ID : 1
      Format : MPEG Audio
      Format version : Version 1
      Format profile : Layer 3
      Mode : Joint stereo
      Mode extension : MS Stereo
      Codec ID : 55
      Codec ID/Hint : MP3
      Duration : 45mn 0s
      Bit rate mode : Constant
      Bit rate : 128 Kbps
      Channel(s) : 2 channels
      Sampling rate : 48.0 KHz
      Compression mode : Lossy
      Stream size : 41.2 MiB (8%)
      Alignment : Aligned on interleaves
      Interleave, duration : 40 ms (1.00 video frame)
      Interleave, preload duration : 504 ms
Семпл: http://multi-up.com/917501

picpicpicpicpicpicpicpicpicpicpicpicpicpicpicpic
Для увеличения картинки щелкните мышкой по превью

Этот торрент недоступен для скачивания без регистрации, однако доступен по публичной magnet-ссылке (источники с публичных трекеров). Перед использованием ссылки прочтите, пожалуйста Пользовательское соглашение, а также как можно дольше оставайтесь на раздаче! Для того, чтобы скачать сам торрент-файл (который видит больше источников), а также для того, чтобы поблагодарить релизера, вам необходимо зарегистрироваться. Если регистрироваться лень - вы можете также попробовать скачать релиз по нашим партнерским ссылкам ниже.

[underverse.su].t32387.torrent
Трекер: Зарегистрирован   [ 27.10.2013 18:11 ]  

Статус: проверено (by 90ytr90 at 27.10.2013 18:15)
Поблагодарили: 1 человек
Тип торрента: публичный - доступные источники с открытых трекеров: 
Размер: 2,05 GB (занимает 0,47 DVDR, для записи нужно 1 болванка DVDR/RW)
 
 


Последний раз редактировалось: nemos (27.10.2013 18:18), всего редактировалось 1 раз

konopic Пол:Муж

27-Окт-2013 18:38

Спасибо! :good:

Яндекс.Метрика powered by Sphinx


В Н И М А Н И Е
Сайт не распространяет и не хранит электронные версии произведений, а лишь бесплатно и без коммерческой выгоды (не требуя взамен платы,
SMS и т.д.) предоставляет доступ к создаваемому пользователями каталогу ссылок на торрент-файлы, которые содержат только списки хеш-сумм.
Убедительная просьба с жалобами обращаться напрямую к пользователю, разместившему торрент файл.

Вверх