Loading...
Error

Покорители волн / Chasing Mavericks (Майкл Эптед, Кёртис Хэнсон) [2012 г., драма, спорт, BDRip] Dub + Original

Статистика раздачи
Размер:  2,19 GB   |    Зарегистрирован:  3 года 1 месяц   |    Скачан:  5 раз

Полного источника не было: 3 года

Сидов:  0  |  0 KB/s  ]   Личеров:  0  |  0 KB/s  ]

* - сиды/пиры с внешних источников

   
 
Автор Сообщение

garry Пол:Муж

27-Окт-2013 08:03

Покорители волн / Chasing Mavericks


Год выпуска: 2012
Жанр: драма, спорт
Страна: США
Режиссер: Майкл Эптед, Кёртис Хэнсон
В ролях: Джерард Батлер, Джонни Уэстон, Элизабет Шу, Эбигейл Спенсер, Ливэн Рамбин, Грег Лонг, Питер Мэл, Зэк Уормхудт, Девин Криттенден, Тейлор Хэндли
Сюжет фильма:
Серфинг — спорт королей. Не каждый сможет справиться с огромными волнами у побережья Калифорнии. Их называют Мавериками, они достигают 25 метров в высоту. Хессон не раз покорял стихию, но не раскрыл своего секрета никому. Он дал обещание любимой женщине — больше не рисковать жизнью. Но смелость юного Джея подкупила Хессона. Смогут ли они, глядя смерти в лицо, удержаться на гребне волны?

  • Мировая премьера: 25 октября 2012
  • Российская премьера: 8 ноября 2012


Качество видео: BDRip

Продолжительность: 01:56:30
Формат: AVI
Видео: XviD, 720x384, 1783 kbps
Аудио #1: русский, дублированный [лицензия], AC3 5.1, 448 kbps
Аудио #2: английский, оригинал, AC3 5.1, 448 kbps
Субтитры #1: тип: внешние, русский, формат: SRT
Субтитры #2: тип: внешние, английский, формат: SRT

Код:

General
 Complete name : Pokoriteli.voln.2012.D.BDRip_[Youtracker]_by_avproh.avi
 Format : AVI
 Format/Info : Audio Video Interleave
 Format profile : OpenDML
 File size : 2.19 GiB
 Duration : 1h 56mn
 Overall bit rate : 2 696 Kbps
 Writing application : VirtualDubModRus 1.5.10.2 (build 2542/release)
 Writing library : VirtualDubMod build 2542/release

 Video
 ID : 0
 Format : MPEG-4 Visual
 Format profile : Advanced Simple@L5
 Format settings, BVOP : 1
 Format settings, QPel : No
 Format settings, GMC : No warppoints
 Format settings, Matrix : Custom
 Codec ID : XVID
 Codec ID/Hint : XviD
 Duration : 1h 56mn
 Bit rate : 1 783 Kbps
 Width : 720 pixels
 Height : 384 pixels
 Display aspect ratio : 1.85:1
 Frame rate : 23.976 fps
 Color space : YUV
 Chroma subsampling : 4:2:0
 Bit depth : 8 bits
 Scan type : Progressive
 Compression mode : Lossy
 Bits/(Pixel*Frame) : 0.269
 Stream size : 1.45 GiB (66%)
 Writing library : XviD 64

 Audio #1
 ID : 1
 Format : AC-3
 Format/Info : Audio Coding 3
 Mode extension : CM (complete main)
 Format settings, Endianness : Big
 Codec ID : 2000
 Duration : 1h 56mn
 Bit rate mode : Constant
 Bit rate : 448 Kbps
 Channel(s) : 6 channels
 Channel positions : Front: L C R, Side: L R, LFE
 Sampling rate : 48.0 KHz
 Bit depth : 16 bits
 Compression mode : Lossy
 Stream size : 372 MiB (17%)
 Alignment : Split accross interleaves
 Interleave, duration : 42 ms (1.00 video frame)
 Interleave, preload duration : 500 ms

 Audio #2
 ID : 2
 Format : AC-3
 Format/Info : Audio Coding 3
 Mode extension : CM (complete main)
 Format settings, Endianness : Big
 Codec ID : 2000
 Duration : 1h 56mn
 Bit rate mode : Constant
 Bit rate : 448 Kbps
 Channel(s) : 6 channels
 Channel positions : Front: L C R, Side: L R, LFE
 Sampling rate : 48.0 KHz
 Bit depth : 16 bits
 Compression mode : Lossy
 Stream size : 373 MiB (17%)
 Alignment : Split accross interleaves
 Interleave, duration : 42 ms (1.00 video frame)
 Interleave, preload duration : 500 ms
Релиз группы:

picpicpic
Для увеличения картинки щелкните мышкой по превью

Этот торрент недоступен для скачивания без регистрации, однако доступен по публичной magnet-ссылке (источники с публичных трекеров). Перед использованием ссылки прочтите, пожалуйста Пользовательское соглашение, а также как можно дольше оставайтесь на раздаче! Для того, чтобы скачать сам торрент-файл (который видит больше источников), а также для того, чтобы поблагодарить релизера, вам необходимо зарегистрироваться. Если регистрироваться лень - вы можете также попробовать скачать релиз по нашим партнерским ссылкам ниже.

[underverse.su].t32348.torrent
Трекер: Зарегистрирован   [ 27.10.2013 08:03 ]  

Статус: проверено (by garry at 27.10.2013 08:03)
Поблагодарили: 1 человек
Тип торрента: публичный - доступные источники с открытых трекеров: 
Размер: 2,19 GB (занимает 0,5 DVDR, для записи нужно 1 болванка DVDR/RW)
 
 
Похожие темы
Форум Тема Автор Торрент Отв. Посл. сооб.
Зарубежное кино [DVDRip, Low-Res HDRip, и т.д.] Покорители волн / Chasing Mavericks (Майкл Эптид, Кертис Хэнсон) [2012 г., Драма, DVDRip] Dub 90ytr90
32 | 0

0 | 1129

23

04.02.2013 18:56

Зарубежное кино [DVDRip, Low-Res HDRip, и т.д.] Покорители волн / Chasing Mavericks (Майкл Эптед, Кёртис Хэнсон) [2012 г., драма, спорт, HDRip] Dub garry
3 | 0

0 | 361

4

27.10.2013 07:55

Зарубежное кино [DVD / HDDVD / BD / Remux] Покорители волн / Chasing Mavericks (Майкл Эптед, Кёртис Хэнсон / Michael Apted, Curtis Hanson) [2012, драма, спорт, BDRemux 1080p] Dub + Sub Rus, Eng + Original Eng uzi2009
5 | 0

0 | 627

3

25.01.2014 21:09

Для пробных раздач Покорители времени / Minutemen (2008) DVDrip Zadolbali
0 | 0

2 | 1420

2

09.05.2009 17:09


Яндекс.Метрика powered by Sphinx


В Н И М А Н И Е
Сайт не распространяет и не хранит электронные версии произведений, а лишь бесплатно и без коммерческой выгоды (не требуя взамен платы,
SMS и т.д.) предоставляет доступ к создаваемому пользователями каталогу ссылок на торрент-файлы, которые содержат только списки хеш-сумм.
Убедительная просьба с жалобами обращаться напрямую к пользователю, разместившему торрент файл.

Вверх