Loading...
Error

Похищенные / Abducted (Люси Филлипс, Глен Скэнтлебери) [2013 г., Триллер, фантастика, WEB-DLRip] DVO

Статистика раздачи
Размер:  1,65 GB   |    Зарегистрирован:  3 года 1 месяц   |    Скачан:  22 раза

Полного источника не было: 2 года 2 месяца

Сидов:  0  |  0 KB/s  ]   Личеров:  0  |  0 KB/s  ]

* - сиды/пиры с внешних источников

   
 
Автор Сообщение

Су-34 Пол:Муж

26-Окт-2013 18:59

Похищенные / Abducted


Год выпуска: 2013
Жанр: Триллер, фантастика
Страна: США
Режиссер: Люси Филлипс, Глен Скэнтлебери
В ролях: Джо Бон, Виван Дюгре, Тесса Феррер, Эмили Грэхэм-Хэндли, Даг Хейли, Джелли Хоуи, Тревор Морган, Санг Мин Парк, Росс Томас
Сюжет фильма:
Джессика и Дейв, одна из трех молодых пар, похищенных в парке Гриффит. Находясь в неизвестном помещении, где таинственные похитители воздействуют на их тело и разум, они пытаются избежать верной смерти, но, постепенно, приходят к пониманию, что мир уже никогда не будет таким, как прежде ...
Качество видео: WEB-DLRip

Продолжительность: 01:35:27
Формат: mkv
Видео: x264, 720x400, 1662 kbps
Аудио #1: русский, двухголосый закадровый [любительский], AC3 5.1, 384 kbps
Аудио #2: английский, оригинал, AC3 5.1, 384 kbps
Субтитры: вшитые отключаемые, S_TEXT/UTF8, английский

Код:

General
Complete name                    : Abducted.2013.WEB-DLRip.CINEMANIA.mkv
Format                           : Matroska
File size                        : 1.65 GiB
Duration                         : 1h 35mn
Overall bit rate                 : 2 480 Kbps
Movie name                       : CINEMANIA.CC
Encoded date                     : UTC 2013-10-25 21:08:48
Writing application              : mkvmerge v6.5.0 ('Isn't she lovely') built on Oct 20 2013 12:50:05
Writing library                  : libebml v1.3.0 + libmatroska v1.4.1

Video
ID                               : 1
Format                           : AVC
Format/Info                      : Advanced Video Codec
Format profile                   : High@L4.1
Format settings, CABAC           : Yes
Format settings, ReFrames        : 3 frames
Muxing mode                      : Container profile=Unknown@4.1
Codec ID                         : V_MPEG4/ISO/AVC
Duration                         : 1h 35mn
Bit rate                         : 1 663 Kbps
Nominal bit rate                 : 1 711 Kbps
Width                            : 720 pixels
Height                           : 400 pixels
Display aspect ratio             : 16/9
Frame rate                       : 23.976 fps
Resolution                       : 24 bits
Colorimetry                      : 4:2:0
Scan type                        : Progressive
Bits/(Pixel*Frame)               : 0.241
Stream size                      : 1.11 GiB (67%)
Title                            : CINEMANIA.CC
Writing library                  : x264 core 138 r2358 9e941d1
Encoding settings                : cabac=1 / ref=4 / deblock=1:-1:-1 / analyse=0x3:0x113 / me=hex / subme=7 / psy=1 / psy_rd=1.00:0.15 / mixed_ref=1 / me_range=16 / chroma_me=1 / trellis=1 / 8x8dct=1 / cqm=0 / deadzone=21,11 / fast_pskip=1 / chroma_qp_offset=-3 / threads=6 / lookahead_threads=1 / sliced_threads=0 / slices=4 / nr=0 / decimate=1 / interlaced=0 / bluray_compat=0 / constrained_intra=0 / bframes=3 / b_pyramid=1 / b_adapt=1 / b_bias=0 / direct=1 / weightb=1 / open_gop=0 / weightp=0 / keyint=23 / keyint_min=1 / scenecut=40 / intra_refresh=0 / rc_lookahead=23 / rc=2pass / mbtree=1 / bitrate=1711 / ratetol=1.0 / qcomp=0.60 / qpmin=10 / qpmax=51 / qpstep=4 / cplxblur=20.0 / qblur=0.5 / vbv_maxrate=40000 / vbv_bufsize=30000 / nal_hrd=vbr / ip_ratio=1.40 / aq=1:1.00

Audio #1
ID                               : 2
Format                           : AC-3
Format/Info                      : Audio Coding 3
Codec ID                         : A_AC3
Duration                         : 1h 35mn
Bit rate mode                    : Constant
Bit rate                         : 384 Kbps
Channel(s)                       : 6 channels
Channel positions                : Front: L C R, Surround: L R, LFE
Sampling rate                    : 48.0 KHz
Stream size                      : 262 MiB (15%)
Title                            : den904 & DeadSno
Language                         : Russian

Audio #2
ID                               : 3
Format                           : AC-3
Format/Info                      : Audio Coding 3
Codec ID                         : A_AC3
Duration                         : 1h 35mn
Bit rate mode                    : Constant
Bit rate                         : 384 Kbps
Channel(s)                       : 6 channels
Channel positions                : Front: L C R, Surround: L R, LFE
Sampling rate                    : 48.0 KHz
Stream size                      : 262 MiB (15%)

Text
ID                               : 4
Format                           : UTF-8
Codec ID                         : S_TEXT/UTF8
Codec ID/Info                    : UTF-8 Plain Text

Menu
00:00:00.000                     : en:Chapter 1
00:08:59.000                     : en:Chapter 2
00:20:54.000                     : en:Chapter 3
00:29:23.000                     : en:Chapter 4
00:38:43.000                     : en:Chapter 5
00:49:24.000                     : en:Chapter 6
00:59:24.000                     : en:Chapter 7
01:13:02.000                     : en:Chapter 8
01:21:11.000                     : en:Chapter 9
01:31:32.000                     : en:Chapter 10

picpicpicpic
Для увеличения картинки щелкните мышкой по превью

Этот торрент недоступен для скачивания без регистрации, однако доступен по публичной magnet-ссылке (источники с публичных трекеров). Перед использованием ссылки прочтите, пожалуйста Пользовательское соглашение, а также как можно дольше оставайтесь на раздаче! Для того, чтобы скачать сам торрент-файл (который видит больше источников), а также для того, чтобы поблагодарить релизера, вам необходимо зарегистрироваться. Если регистрироваться лень - вы можете также попробовать скачать релиз по нашим партнерским ссылкам ниже.

[underverse.su].t32327.torrent
Трекер: Зарегистрирован   [ 26.10.2013 18:59 ]  

Статус: проверено (by техно1 at 27.10.2013 09:48)
Поблагодарили: 1 человек
Тип торрента: публичный - доступные источники с открытых трекеров: 
Размер: 1,65 GB (занимает 0,38 DVDR, для записи нужно 1 болванка DVDR/RW)
 
 


Последний раз редактировалось: Су-34 (27.10.2013 05:39), всего редактировалось 1 раз

техно1 Пол:Муж

26-Окт-2013 20:46

Су-34
Тут вроде бы две аудио дорожки, а у Вас указана одна, исправьте пожалуйста.

Яндекс.Метрика powered by Sphinx


В Н И М А Н И Е
Сайт не распространяет и не хранит электронные версии произведений, а лишь бесплатно и без коммерческой выгоды (не требуя взамен платы,
SMS и т.д.) предоставляет доступ к создаваемому пользователями каталогу ссылок на торрент-файлы, которые содержат только списки хеш-сумм.
Убедительная просьба с жалобами обращаться напрямую к пользователю, разместившему торрент файл.

Вверх