Loading...
Error

Курьерский особой важности [Серии: 4 из 4] (Олег Фомин) [2013 г., военный, SatRip]

Статистика раздачи
Размер:  1,95 GB   |    Зарегистрирован:  3 года 1 месяц   |    Скачан:  28 раз

Полного источника не было: 2 года 2 месяца

Сидов:  0  |  0 KB/s  ]   Личеров:  0  |  0 KB/s  ]

* - сиды/пиры с внешних источников

   
 
Автор Сообщение

UseR Пол:Муж

26-Окт-2013 16:42

Курьерский особой важности


Год выпуска: 2013
Жанр: военный
Серии: 1-4 из 4
Страна: Россия
Режиссер: Олег Фомин
В ролях: Семен Шкаликов, Алексей Фаддеев, Гурам Баблишвили, Виктория Полторак, Константин Демидов (II), Александр Бобров (IV), Владимир Яворский, Леонид Тимцуник, Вадим Астафьев, Михаил Водзуми, Павел Абдалов, Олег Фомин, Кирилл Козаков, Алик Гульханов, Ведат Меметов, Фатих Шафиков, Олег Доброван, Дмитрий Горевой, Юрий Маслак и др.
Сюжет фильма:
Россия, 1916 год. Идет Первая мировая война. Капитан русской контрразведки Василий Щепкин со своей группой занимается выявлением вражеской агентуры в столице Российской империи. В состав группы входят, кроме него, еще трое: ротмистр Гоглидзе, прапорщик Белкин и вольнонаемный сотрудник Диана Холодова. Из здания Русского Генерального штаба похищаются важные документы, а именно план дислокации русских войск на Дальнем Востоке. Кража совершена человеком, одетым под японского ниндзя. Группе Щепкина поручается любой ценой не допустить того, чтобы документы попали в Японию. Щепкин предлагает план операции под кодовым названием "Синема".
Качество видео: SatRip

Продолжительность: 4 х 00:43:33
Формат: avi
Видео: DivX 5, 720x400, 1500 kbps
Аудио: русский, оригинал, MP3 2.0, 128 kbps

Код:

General
Complete name                    : D:\Video\Курьерский особой важности\Kurerskij.osoboj.vazhnosti.01.SATRip.avi
Format                           : AVI
Format/Info                      : Audio Video Interleave
File size                        : 510 MiB
Duration                         : 43mn 33s
Overall bit rate                 : 1 638 Kbps
Writing library                  : VirtualDub build 32842/release

Video
ID                               : 0
Format                           : MPEG-4 Visual
Format settings, BVOP            : Yes
Format settings, QPel            : No
Format settings, GMC             : No warppoints
Format settings, Matrix          : Default (H.263)
Muxing mode                      : Packed bitstream
Codec ID                         : DX50
Codec ID/Hint                    : DivX 5
Duration                         : 43mn 33s
Bit rate                         : 1 500 Kbps
Width                            : 720 pixels
Height                           : 400 pixels
Display aspect ratio             : 16/9
Frame rate                       : 25.000 fps
Resolution                       : 24 bits
Colorimetry                      : 4:2:0
Scan type                        : Progressive
Bits/(Pixel*Frame)               : 0.208
Stream size                      : 467 MiB (92%)
Writing library                  : DivX 6.8.5

Audio
ID                               : 1
Format                           : MPEG Audio
Format version                   : Version 1
Format profile                   : Layer 3
Codec ID                         : 55
Codec ID/Hint                    : MP3
Duration                         : 43mn 33s
Bit rate mode                    : Constant
Bit rate                         : 128 Kbps
Channel(s)                       : 2 channels
Sampling rate                    : 48.0 KHz
Resolution                       : 16 bits
Stream size                      : 39.9 MiB (8%)
Alignment                        : Split accross interleaves
Interleave, duration             : 40 ms (1.00 video frame)
Interleave, preload duration     : 500 ms

picpicpicpicpicpicpicpicpicpicpicpicpicpic
Для увеличения картинки щелкните мышкой по превью

Этот торрент недоступен для скачивания без регистрации, однако доступен по публичной magnet-ссылке (источники с публичных трекеров). Перед использованием ссылки прочтите, пожалуйста Пользовательское соглашение, а также как можно дольше оставайтесь на раздаче! Для того, чтобы скачать сам торрент-файл (который видит больше источников), а также для того, чтобы поблагодарить релизера, вам необходимо зарегистрироваться. Если регистрироваться лень - вы можете также попробовать скачать релиз по нашим партнерским ссылкам ниже.

[underverse.su].t32374.torrent
Трекер: Зарегистрирован   [ 27.10.2013 15:48 ]  

Статус: проверено (by 90ytr90 at 28.10.2013 05:44)
Поблагодарили: 3 человека
Тип торрента: публичный - доступные источники с открытых трекеров: 
Размер: 1,95 GB (занимает 0,45 DVDR, для записи нужно 1 болванка DVDR/RW)
 
 

Яндекс.Метрика powered by Sphinx


В Н И М А Н И Е
Сайт не распространяет и не хранит электронные версии произведений, а лишь бесплатно и без коммерческой выгоды (не требуя взамен платы,
SMS и т.д.) предоставляет доступ к создаваемому пользователями каталогу ссылок на торрент-файлы, которые содержат только списки хеш-сумм.
Убедительная просьба с жалобами обращаться напрямую к пользователю, разместившему торрент файл.

Вверх