Loading...
Error

Человек из стали / Man of Steel (Зак Снайдер) [2013 г., фантастика, фэнтези, боевик, приключения, BDRip] Dub + Original HQ Underverse

Статистика раздачи
Размер:  2,91 GB   |    Зарегистрирован:  3 года 1 месяц   |    Скачан:  82 раза
Сидов:  1  |  0 KB/s  ]   Личеров:  0  |  0 KB/s  ]

* - сиды/пиры с внешних источников

   
 
Автор Сообщение

HQ Underverse 

20-Окт-2013 20:06

Человек из стали / Man of Steel


Год выпуска: 2013
Жанр: фантастика, фэнтези, боевик, приключения
Страна: США , Канада , Великобритания
Режиссер: Зак Снайдер
В ролях: Генри Кавилл, Эми Адамс, Майкл Шеннон, Кевин Костнер, Дайан Лэйн, Лоренс Фишбёрн, Антье Трое, Айелет Зурер, Рассел Кроу, Гарри Дж. Ленникс
Сюжет фильма:
Кларк Кент/Кал-Эл — молодой журналист, который чувствует себя чужаком из-за своей невероятной силы. Много лет назад он был отправлен на Землю с развитой планеты Криптон, и теперь задается вопросом: зачем? Воспитанный приемными родителями Мартой и Джонатаном Кентами, Кларк знает: обладать сверхспособностями — значит принимать сложные решения. Но когда человечество более всего нуждается в стабильности, оно подвергается нападению. Сможет ли герой восстановить мир, или воспользуется своей силой для того, чтобы окончательно его разрушить? Кларк должен стать супергероем известным как «Супермен», чтобы вселять надежду в сердца людей и защищать тех, кого он любит.

  • Мировая премьера: 10 июня 2013
  • Российская премьера: 20 июня 2013


Качество видео: BDRip

Продолжительность: 02:23:02
Формат: avi
Видео: XviD, 720x304, 1998 kbps
Аудио #1: русский, дублированный [лицензия], AC3 5.1, 448 kbps
Аудио #2: английский, оригинал, AC3 5.1, 448 kbps

Код:

General
Complete name                    : D:\Video\Movies\Releases\Man.of.Steel.2013.BDRip.XviD.AC3.Rus.D.Eng.O.HQ.Underverse.avi
Format                           : AVI
Format/Info                      : Audio Video Interleave
Format profile                   : OpenDML
File size                        : 2.91 GiB
Duration                         : 2h 23mn
Overall bit rate                 : 2 911 Kbps
Writing application              : VirtualDubMod 1.5.10.2 (build 2540/release)
Writing library                  : VirtualDubMod build 2540/release

Video
ID                               : 0
Format                           : MPEG-4 Visual
Format profile                   : Streaming Video@L1
Format settings, BVOP            : Yes
Format settings, QPel            : No
Format settings, GMC             : No warppoints
Format settings, Matrix          : Custom
Muxing mode                      : Packed bitstream
Codec ID                         : XVID
Codec ID/Hint                    : XviD
Duration                         : 2h 23mn
Bit rate                         : 1 999 Kbps
Width                            : 720 pixels
Height                           : 304 pixels
Display aspect ratio             : 2.35
Frame rate                       : 23.976 fps
Resolution                       : 24 bits
Colorimetry                      : 4:2:0
Scan type                        : Progressive
Bits/(Pixel*Frame)               : 0.381
Stream size                      : 2.00 GiB (69%)
Writing library                  : XviD 64

Audio #1
ID                               : 1
Format                           : AC-3
Format/Info                      : Audio Coding 3
Codec ID                         : 2000
Duration                         : 2h 23mn
Bit rate mode                    : Constant
Bit rate                         : 448 Kbps
Channel(s)                       : 6 channels
Channel positions                : Front: L C R, Surround: L R, LFE
Sampling rate                    : 48.0 KHz
Stream size                      : 458 MiB (15%)
Alignment                        : Split accross interleaves
Interleave, duration             : 42 ms (1.00 video frame)
Interleave, preload duration     : 500 ms
Title                            : Man.of.Steel.2013.Rus.Dub.AC3.5.1.448.kbps.HQ.Underverse

Audio #2
ID                               : 2
Format                           : AC-3
Format/Info                      : Audio Coding 3
Codec ID                         : 2000
Duration                         : 2h 23mn
Bit rate mode                    : Constant
Bit rate                         : 448 Kbps
Channel(s)                       : 6 channels
Channel positions                : Front: L C R, Surround: L R, LFE
Sampling rate                    : 48.0 KHz
Stream size                      : 458 MiB (15%)
Alignment                        : Split accross interleaves
Interleave, duration             : 42 ms (1.00 video frame)
Interleave, preload duration     : 500 ms
Title                            : Man.of.Steel.2013.Eng.O.AC3.5.1.448.kbps.HQ.Underverse

Семпл: http://multi-up.com/915227

Релиз группы:

picpicpic
Для увеличения картинки щелкните мышкой по превью

Этот торрент доступен для скачивания без регистрации. Перед тем, как его скачать, прочтите, пожалуйста Пользовательское соглашение, а также как можно дольше оставайтесь на раздаче! Также вы можете выкладывать этот торрент или ссылку на него на других интернет-ресурсах, в том числе на торрент трекерах. Для получение более подробной информации о релизе, а также для того, чтобы поблагодарить релизера, вам необходимо зарегистрироваться.

[underverse.su].t32119.torrent
Трекер: Зарегистрирован   [ 20.10.2013 20:06 ]   [ торрент доступен для скачивания без регистрации ]

Статус: проверено (by Паукан at 21.10.2013 06:43)
Поблагодарили: 3 человека
Тип торрента: публичный - доступные источники с открытых трекеров: 
Размер: 2,91 GB (занимает 2/3 DVDR, для записи нужно 1 болванка DVDR/RW)
 
 
Похожие темы
Форум Тема Автор Торрент Отв. Посл. сооб.
Зарубежное кино [DVDRip, Low-Res HDRip, и т.д.] Человек из ниоткуда / Ajeossi / The Man From Nowhere (Ли Чжон Бом) [2010 г., боевик, триллер, криминал, HDRip] AVO garry
18 | 1

0 | 866

23

15.10.2012 17:37

Зарубежное кино [DVDRip, Low-Res HDRip, и т.д.] Человек из ниоткуда / Ajeossi / The Man From Nowhere (Ли Чжон Бом) [2010 г., боевик, триллер, криминал, HDRip] MVO Паукан
14 | 1

0 | 1832

26

17.06.2013 07:07

Зарубежное кино [DVDRip, Low-Res HDRip, и т.д.] Человек из стали / Man of Steel (Зак Снайдер) [2013 г., фантастика, фэнтези, боевик, приключения, HDRip] Dub + Original 90ytr90
4 | 0

0 | 600

11

18.10.2013 16:54

Зарубежное кино [DVDRip, Low-Res HDRip, и т.д.] Человек из стали / Man of Steel (Зак Снайдер) [2013 г., фантастика, фэнтези, боевик, приключения, HDRip] Dub 90ytr90
1 | 0

0 | 1074

86

18.10.2013 17:10

Зарубежное кино [DVDRip, Low-Res HDRip, и т.д.] Человек из стали / Man of Steel (Зак Снайдер) [2013 г., фантастика, фэнтези, боевик, приключения, BDRip-AVC] Dub + Sub (Eng) 90ytr90
2 | 1

0 | 1671

19

18.10.2013 19:40

Зарубежное кино [DVDRip, Low-Res HDRip, и т.д.] Человек из стали / Man of Steel (Зак Снайдер) [2013 г., фантастика, фэнтези, боевик, приключения, ВDRip] Dub 90ytr90
2 | 0

0 | 656

39

19.10.2013 05:50

Зарубежное кино [DVDRip, Low-Res HDRip, и т.д.] Человек из Рино / Man from Reno (Дэйв Бойл) [2014 г., триллер, драма, криминал, детектив, WEB-DLRip] MVO makkol
4 | 0

0 | 866

18

26.03.2016 22:33

Наше кино [DVDRip, Low-Res HDRip, и т.д.] Человек из банки (Иван Кульнев) [2012 г., комедия, DVDRip] RG NewCinema
19 | 3

0 | 946

47

29.11.2012 12:45

Зарубежное кино HQ Человек из ниоткуда / Ajeossi / The Man from Nowhere (Ли Чжон Бом / Lee Jeong Beom) [2010 г., боевик, триллер, криминал, BDRip] AVO HQ Underverse HQ Underverse
9 | 0

1 | 1495

59

14.07.2015 18:00

Зарубежное кино [DVD / HDDVD / BD / Remux] Человек из стали / Man of Steel (Зак Снайдер) [2013 г., фантастика, фэнтези, боевик, приключения, DVD-9] DuB [ Лицензия] Чертёнок
1 | 0

0 | 596

11

22.10.2013 10:46


Яндекс.Метрика powered by Sphinx


В Н И М А Н И Е
Сайт не распространяет и не хранит электронные версии произведений, а лишь бесплатно и без коммерческой выгоды (не требуя взамен платы,
SMS и т.д.) предоставляет доступ к создаваемому пользователями каталогу ссылок на торрент-файлы, которые содержат только списки хеш-сумм.
Убедительная просьба с жалобами обращаться напрямую к пользователю, разместившему торрент файл.

Вверх