Loading...
Error

Городские шпионы (12 серий из 12) (Дмитрий Черкасов) [2013 г., детектив, SatRip]

Статистика раздачи
Размер:  8,27 GB   |    Зарегистрирован:  3 года 1 месяц   |    Скачан:  17 раз

Полного источника не было: 2 года 1 месяц

Сидов:  0  |  0 KB/s  ]   Личеров:  0  |  0 KB/s  ]

* - сиды/пиры с внешних источников

   
 
Автор Сообщение

UseR Пол:Муж

19-Окт-2013 17:12

Городские шпионы


Год выпуска: 2013
Жанр: детектив
Страна: Россия
Режиссер: Дмитрий Черкасов
В ролях: Оксана Фандера, Анатолий Белый, Александр Робак, Алексей Литвиненко, Виталий Хаев, Анна Лутцева, Фёдор Лавров, Дмитрий Фрид, Ольга Дыховичная, Ольга Сумская, Константин Котляров, Игорь Денисов, Максим Меркулов, Борис Тенин, Роман Морозов, Артём Григорьев, Евгений Кушпель, Андрюс Паулавичюс, Полина Стефанович, Артём Григорьев, Олег Вебер, Инна Коляда и др.
Сюжет фильма:
Команда Андрея Шпагина расследует заговор крупного преступного синдиката по нелегальной добыче и контрабанде неограненных алмазов. Сложный преступный механизм под личиной солидного легального бизнеса.
ГОРОДСКИЕ ШПИОНЫ – люди, которых мы не видим. С тысячей лиц в рукаве, и без права на ошибку…


Качество видео: SatRip

Продолжительность: 00:52:35
Формат: avi
Видео: XviD, 720x400, 1654 kbps
Аудио: русский, оригинал, MP3 2.0, 192 kbps

Код:

General
Complete name                    : D:\Video\Городские шпионы\Городские шпионы.(Serija.01).2013.XviD.SATRip.avi
Format                           : AVI
Format/Info                      : Audio Video Interleave
File size                        : 698 MiB
Duration                         : 52mn 35s
Overall bit rate                 : 1 857 Kbps
Writing application              : VirtualDubMod 1.5.10.3 | www.virtualdub-fr.org || (build 2550/release)
Writing library                  : VirtualDubMod build 2550/release

Video
ID                               : 0
Format                           : MPEG-4 Visual
Format profile                   : Streaming Video@L1
Format settings, BVOP            : Yes
Format settings, QPel            : No
Format settings, GMC             : No warppoints
Format settings, Matrix          : Default (H.263)
Codec ID                         : XVID
Codec ID/Hint                    : XviD
Duration                         : 52mn 35s
Bit rate                         : 1 655 Kbps
Width                            : 720 pixels
Height                           : 400 pixels
Display aspect ratio             : 16/9
Frame rate                       : 25.000 fps
Resolution                       : 24 bits
Colorimetry                      : 4:2:0
Scan type                        : Progressive
Bits/(Pixel*Frame)               : 0.230
Stream size                      : 623 MiB (89%)
Writing library                  : XviD 1.2.1 (UTC 2008-12-04)

Audio
ID                               : 1
Format                           : MPEG Audio
Format version                   : Version 1
Format profile                   : Layer 3
Codec ID                         : 55
Codec ID/Hint                    : MP3
Duration                         : 52mn 35s
Bit rate mode                    : Constant
Bit rate                         : 192 Kbps
Channel(s)                       : 2 channels
Sampling rate                    : 48.0 KHz
Resolution                       : 16 bits
Stream size                      : 72.2 MiB (10%)
Alignment                        : Aligned on interleaves
Interleave, duration             : 40 ms (1.00 video frame)
Interleave, preload duration     : 504 ms
Writing library                  : LAME3.99r
Encoding settings                : -m j -V 4 -q 2 -lowpass 18.6 -b 192

picpicpicpicpicpicpicpic
Для увеличения картинки щелкните мышкой по превью

Этот торрент недоступен для скачивания без регистрации, однако доступен по публичной magnet-ссылке (источники с публичных трекеров). Перед использованием ссылки прочтите, пожалуйста Пользовательское соглашение, а также как можно дольше оставайтесь на раздаче! Для того, чтобы скачать сам торрент-файл (который видит больше источников), а также для того, чтобы поблагодарить релизера, вам необходимо зарегистрироваться. Если регистрироваться лень - вы можете также попробовать скачать релиз по нашим партнерским ссылкам ниже.

[underverse.su].t32089.torrent
Трекер: Зарегистрирован   [ 19.10.2013 19:56 ]  

Статус: проверено (by Чертёнок at 19.10.2013 22:07)
Поблагодарили: 2 человека
Тип торрента: публичный - доступные источники с открытых трекеров: 
Размер: 8,27 GB (занимает 1,89 DVDR, для записи нужно 2 болванки DVDR/RW)
 
 
Похожие темы
Форум Тема Автор Торрент Отв. Посл. сооб.
# Другие фильмы Городские Джунгли (Москва) [2010 г., документальный, TVRip] Original evropium
0 | 0

1 | 403

0

16.10.2015 07:54

xUSSR сериалы [BD / Remux / BDRip / WEB-DL / HDTV 1080/720р] Городские шпионы [01-12 из 12] (Дмитрий Черкасов) [2013 г., Детектив, приключения, WEB-DL 1080p] nemos
2 | 3

0 | 766

4

15.05.2016 17:45



Последний раз редактировалось: UseR (19.10.2013 19:55), всего редактировалось 1 раз

Яндекс.Метрика powered by Sphinx


В Н И М А Н И Е
Сайт не распространяет и не хранит электронные версии произведений, а лишь бесплатно и без коммерческой выгоды (не требуя взамен платы,
SMS и т.д.) предоставляет доступ к создаваемому пользователями каталогу ссылок на торрент-файлы, которые содержат только списки хеш-сумм.
Убедительная просьба с жалобами обращаться напрямую к пользователю, разместившему торрент файл.

Вверх