Loading...
Error

Разведчики: Фильм 2 Война после войны (Александр Замятин ) (01-06 из 6 серий) [2008 г., военный, DVDRip]

Статистика раздачи
Размер:  2,74 GB   |    Зарегистрирован:  3 года 1 месяц   |    Скачан:  12 раз

Полного источника не было: 1 месяц 20 дней

Сидов:  0  |  0 KB/s  ]   Личеров:  0  |  0 KB/s  ]

* - сиды/пиры с внешних источников

   
 
Автор Сообщение

vasilich619 Пол:Муж

19-Окт-2013 08:06

Разведчики: Фильм 2 Война после войны


Год выпуска: 2008
Серии: 1-6
Жанр: военный
Страна: Россия
Режиссер: Александр Замятин

В ролях: Максим Заусалин, Борис Щербаков, Александр Суворов, Евгения Лоза, Вадим Андреев, Владимир Стержаков, Сергей Демченко, Альберт Каспарянц, Николай Величко, Тимофей Криницкий...
Сюжет фильма:
С окончанием Великой Отечественной войны в стране наступает долгожданный мир. Но уже через год жители одного из южных приморских городков теряют покой: здесь начинает орудовать неуловимая банда, совершившая за короткий период времени несколько дерзких ограблений и жестоких убийств. Местные органы правопорядка не в силах дать должный отпор распоясавшимся бандитам, руководимым жестоким и беспощадным Артистом. Безнаказанность подталкивает преступников на ограбление склада с оружием одной из воинских частей, расположенной недалеко от города. Наступает время решительных ответных мер…


Качество видео: DVDRip

Продолжительность: 6х00:43:07
Формат: avi
Видео: XviD, 720x416, 1422 kbps
Аудио: русский, оригинал, AC3 2.0, 256 kbps

Код:

General
Complete name                    : E:\Фильмы\Военные\Разведчики. Фильм 2 Война после войны (2008)\Razvedchiki. Film 2 (2008) 01.avi
Format                           : AVI
Format/Info                      : Audio Video Interleave
File size                        : 521 MiB
Duration                         : 43mn 7s
Overall bit rate                 : 1 688 Kbps
Writing application              : VirtualDubMod 1.5.10.2 (build 2540/release)
Writing library                  : VirtualDubMod build 2540/release

Video
ID                               : 0
Format                           : MPEG-4 Visual
Format settings, BVOP            : No
Format settings, QPel            : No
Format settings, GMC             : No warppoints
Format settings, Matrix          : Default (H.263)
Codec ID                         : XVID
Codec ID/Hint                    : XviD
Duration                         : 43mn 7s
Bit rate                         : 1 423 Kbps
Width                            : 720 pixels
Height                           : 416 pixels
Display aspect ratio             : 16/9
Frame rate                       : 25.000 fps
Resolution                       : 24 bits
Colorimetry                      : 4:2:0
Scan type                        : Progressive
Bits/(Pixel*Frame)               : 0.190
Stream size                      : 439 MiB (84%)
Writing library                  : XviD 1.0.1 (UTC 2004-06-05)

Audio
ID                               : 1
Format                           : AC-3
Format/Info                      : Audio Coding 3
Codec ID                         : 2000
Duration                         : 43mn 7s
Bit rate mode                    : Constant
Bit rate                         : 256 Kbps
Channel(s)                       : 2 channels
Channel positions                : L R
Sampling rate                    : 48.0 KHz
Stream size                      : 79.0 MiB (15%)
Alignment                        : Split accross interleaves
Interleave, duration             : 40 ms (1.00 video frame)
Interleave, preload duration     : 500 ms
Language                         : Russian

Семпл:
picpicpicpicpicpicpicpicpic
Для увеличения картинки щелкните мышкой по превью

Этот торрент недоступен для скачивания без регистрации, однако доступен по публичной magnet-ссылке (источники с публичных трекеров). Перед использованием ссылки прочтите, пожалуйста Пользовательское соглашение, а также как можно дольше оставайтесь на раздаче! Для того, чтобы скачать сам торрент-файл (который видит больше источников), а также для того, чтобы поблагодарить релизера, вам необходимо зарегистрироваться. Если регистрироваться лень - вы можете также попробовать скачать релиз по нашим партнерским ссылкам ниже.

[underverse.su].t32054.torrent
Трекер: Зарегистрирован   [ 19.10.2013 08:06 ]  

Статус: проверено (by 90ytr90 at 19.10.2013 08:17)
Поблагодарили: пока никто не поблагодарил...
Тип торрента: публичный - доступные источники с открытых трекеров: 
Размер: 2,74 GB (занимает 0,63 DVDR, для записи нужно 1 болванка DVDR/RW)
 
 
Похожие темы
Форум Тема Автор Торрент Отв. Посл. сооб.
xUSSR сериалы Разведчики: Последний бой (Александр Замятин) (01-06 из 6 серий) [2008 г., военный, DVDRip] vasilich619
0 | 1

0 | 1674

24

18.10.2013 20:20


Яндекс.Метрика powered by Sphinx


В Н И М А Н И Е
Сайт не распространяет и не хранит электронные версии произведений, а лишь бесплатно и без коммерческой выгоды (не требуя взамен платы,
SMS и т.д.) предоставляет доступ к создаваемому пользователями каталогу ссылок на торрент-файлы, которые содержат только списки хеш-сумм.
Убедительная просьба с жалобами обращаться напрямую к пользователю, разместившему торрент файл.

Вверх