Loading...
Error

Разведчики: Последний бой (Александр Замятин) (01-06 из 6 серий) [2008 г., военный, DVDRip]

Статистика раздачи
Размер:  2,74 GB   |    Зарегистрирован:  3 года 1 месяц   |    Скачан:  24 раза

Полного источника не было: 1 день 16 часов

Сидов:  0  |  0 KB/s  ]   Личеров:  0  |  0 KB/s  ]

* - сиды/пиры с внешних источников

   
 
Автор Сообщение

vasilich619 Пол:Муж

18-Окт-2013 20:20

Разведчики: Последний бой


Год выпуска: 2008
Жанр: военный
Страна: Россия
Режиссер: Александр Замятин
Серий: 1-6
В ролях: Борис Щербаков, Максим Заусалин, Михаил Тарабукин, Никита Салопин, Татьяна Остап, Александр Суворов, Игорь Гудеев, Владимир Базынков, Олег Валкман, Игорь Салимонов...
Сюжет фильма:
Конец войны. В Разведывательное Управление красной армии начинают поступать сведения о проведении немцами успешных испытаний новейших научных разработок — летательных аппаратов вертикального взлета — дисколетов. Один из вероятных районов размещения немецкого секретного завода — лесная местность в горном массиве западной Чехии. Группа разведчиков получает приказ обнаружить точное месторасположение объекта…


Качество видео: DVDRip

Продолжительность: 6х00:43:57
Формат: avi
Видео: XviD, 656x368, 1572 kbps
Аудио: русский, оригинал, AC3 2.0, 256 kbps

Код:

General
Complete name                    : E:\Фильмы\Военные\Разведчики. Последний бой\Разведчики. Последний бой. (1 серия) .avi
Format                           : AVI
Format/Info                      : Audio Video Interleave
File size                        : 578 MiB
Duration                         : 43mn 57s
Overall bit rate                 : 1 838 Kbps
Writing application              : VirtualDubMod 1.5.10.2 (build 2540/release)
Writing library                  : VirtualDub build 32842/release

Video
ID                               : 0
Format                           : MPEG-4 Visual
Format profile                   : Streaming Video@L1
Format settings, BVOP            : Yes
Format settings, QPel            : No
Format settings, GMC             : No warppoints
Format settings, Matrix          : Default (MPEG)
Codec ID                         : XVID
Codec ID/Hint                    : XviD
Duration                         : 43mn 57s
Bit rate                         : 1 573 Kbps
Width                            : 656 pixels
Height                           : 368 pixels
Display aspect ratio             : 16/9
Frame rate                       : 25.000 fps
Resolution                       : 24 bits
Colorimetry                      : 4:2:0
Scan type                        : Progressive
Bits/(Pixel*Frame)               : 0.261
Stream size                      : 494 MiB (86%)
Writing library                  : XviD 1.2.0.dev47 (UTC 2006-11-01)

Audio
ID                               : 1
Format                           : AC-3
Format/Info                      : Audio Coding 3
Codec ID                         : 2000
Duration                         : 43mn 57s
Bit rate mode                    : Constant
Bit rate                         : 256 Kbps
Channel(s)                       : 2 channels
Channel positions                : L R
Sampling rate                    : 48.0 KHz
Stream size                      : 80.5 MiB (14%)
Alignment                        : Split accross interleaves
Interleave, duration             : 40 ms (1.00 video frame)
Interleave, preload duration     : 500 ms

Семпл:
picpicpicpicpicpicpicpicpicpic
Для увеличения картинки щелкните мышкой по превью

Этот торрент недоступен для скачивания без регистрации, однако доступен по публичной magnet-ссылке (источники с публичных трекеров). Перед использованием ссылки прочтите, пожалуйста Пользовательское соглашение, а также как можно дольше оставайтесь на раздаче! Для того, чтобы скачать сам торрент-файл (который видит больше источников), а также для того, чтобы поблагодарить релизера, вам необходимо зарегистрироваться. Если регистрироваться лень - вы можете также попробовать скачать релиз по нашим партнерским ссылкам ниже.

[underverse.su].t32046.torrent
Трекер: Зарегистрирован   [ 18.10.2013 20:20 ]  

Статус: проверено (by 90ytr90 at 18.10.2013 20:31)
Поблагодарили: 1 человек
Тип торрента: публичный - доступные источники с открытых трекеров: 
Размер: 2,74 GB (занимает 0,63 DVDR, для записи нужно 1 болванка DVDR/RW)
 
 
Похожие темы
Форум Тема Автор Торрент Отв. Посл. сооб.
xUSSR сериалы Разведчики: Фильм 2 Война после войны (Александр Замятин ) (01-06 из 6 серий) [2008 г., военный, DVDRip] vasilich619
0 | 0

0 | 1560

12

19.10.2013 08:06


Яндекс.Метрика powered by Sphinx


В Н И М А Н И Е
Сайт не распространяет и не хранит электронные версии произведений, а лишь бесплатно и без коммерческой выгоды (не требуя взамен платы,
SMS и т.д.) предоставляет доступ к создаваемому пользователями каталогу ссылок на торрент-файлы, которые содержат только списки хеш-сумм.
Убедительная просьба с жалобами обращаться напрямую к пользователю, разместившему торрент файл.

Вверх