Loading...
Error

Победительница / Suai Samurai (Маноп Удомдеж / Manop Udomdej) [2009 г., фантастика, боевик, HDRip] MVO

Статистика раздачи
Размер:  1,37 GB   |    Зарегистрирован:  3 года 1 месяц   |    Скачан:  8 раз

Полного источника не было: 2 года 1 месяц

Сидов:  0  |  0 KB/s  ]   Личеров:  0  |  0 KB/s  ]

* - сиды/пиры с внешних источников

   
 
Автор Сообщение

UseR Пол:Муж

18-Окт-2013 16:41

Победительница / Suai Samurai


Год выпуска: 2009
Жанр: фантастика, боевик
Страна: Таиланд
Режиссер: Маноп Удомдеж / Manop Udomdej
В ролях: Софита Срибан, Нуи Кетсарин, Джакуи А. Тананон, Назанью В. Кажданг, Пете Тонгчуер, Понг Явагун, Саито Кано, Казуки Яно, Такато Кимамото, Джой Джонсон, Николас Сноу...
Сюжет фильма:
Главной героине, агенту ЦРУ Гандже, после выполнения тайной миссии на юге Таиланда, придётся отбиваться от оперативников, которым приказали убрать её любой ценой. Она выжила и после двух лет пребывания «на дне» опять появилась в Бангкоке. Там она сразится со старыми врагами и нарушит план по взрыву города.


Качество видео: HDRip

Продолжительность: 01:32:56
Формат: avi
Видео: XviD, 720x400, 1659 kbps
Аудио: русский, многоголосый закадровый [любительский], AC3 5.1, 448 kbps

Код:

General
Complete name                    : D:\Video\Победительница - The Vanquisher\The Vanquisher HDRip.avi
Format                           : AVI
Format/Info                      : Audio Video Interleave
File size                        : 1.37 GiB
Duration                         : 1h 32mn
Overall bit rate                 : 2 117 Kbps
Writing application              : VirtualDubModRus 1.5.10.2 (build 2542/release)
Writing library                  : VirtualDubMod build 2542/release

Video
ID                               : 0
Format                           : MPEG-4 Visual
Format profile                   : Streaming Video@L1
Format settings, BVOP            : Yes
Format settings, QPel            : No
Format settings, GMC             : No warppoints
Format settings, Matrix          : Custom
Codec ID                         : XVID
Codec ID/Hint                    : XviD
Duration                         : 1h 32mn
Bit rate                         : 1 660 Kbps
Width                            : 720 pixels
Height                           : 400 pixels
Display aspect ratio             : 16/9
Frame rate                       : 23.976 fps
Resolution                       : 24 bits
Colorimetry                      : 4:2:0
Scan type                        : Progressive
Bits/(Pixel*Frame)               : 0.240
Stream size                      : 1.08 GiB (78%)
Writing library                  : XviD 1.2.1 (UTC 2008-12-04)

Audio
ID                               : 1
Format                           : AC-3
Format/Info                      : Audio Coding 3
Codec ID                         : 2000
Duration                         : 1h 32mn
Bit rate mode                    : Constant
Bit rate                         : 448 Kbps
Channel(s)                       : 6 channels
Channel positions                : Front: L C R, Surround: L R, LFE
Sampling rate                    : 48.0 KHz
Video delay                      : 457ms
Stream size                      : 298 MiB (21%)
Alignment                        : Split accross interleaves
Interleave, duration             : 42 ms (1.00 video frame)
Interleave, preload duration     : 500 ms

picpicpicpicpicpicpicpicpicpicpicpicpic
Для увеличения картинки щелкните мышкой по превью

Этот торрент недоступен для скачивания без регистрации, однако доступен по публичной magnet-ссылке (источники с публичных трекеров). Перед использованием ссылки прочтите, пожалуйста Пользовательское соглашение, а также как можно дольше оставайтесь на раздаче! Для того, чтобы скачать сам торрент-файл (который видит больше источников), а также для того, чтобы поблагодарить релизера, вам необходимо зарегистрироваться. Если регистрироваться лень - вы можете также попробовать скачать релиз по нашим партнерским ссылкам ниже.

[underverse.su].t32043.torrent
Трекер: Зарегистрирован   [ 18.10.2013 19:37 ]  

Статус: проверено (by 90ytr90 at 18.10.2013 19:48)
Поблагодарили: пока никто не поблагодарил...
Тип торрента: публичный - доступные источники с открытых трекеров: 
Размер: 1,37 GB (занимает 0,31 DVDR, для записи нужно 1 болванка DVDR/RW)
 
 
Похожие темы
Форум Тема Автор Торрент Отв. Посл. сооб.
* Архив Победитель (Альгис Арлаускас) [2009 г., мелодрама, DVDRip] Lanka

2 | 1260

29.08.2010 23:52



Последний раз редактировалось: UseR (18.10.2013 19:37), всего редактировалось 1 раз

90ytr90 

18-Окт-2013 18:41

фильм 2013 г. http://www.kinopoisk.ru/film/401947/

фильм 2009 г. http://www.kinopoisk.ru/film/502768/

Здесь все как-то перемешано :shock: %)

Что в итоге раздается?

Чертёнок Пол:Муж

18-Окт-2013 19:19

Победительница / Suai Samurai

90ytr90 

18-Окт-2013 19:31

Чертёнок писал(а):

Победительница / Suai Samurai
Скорее всего, да.

Яндекс.Метрика powered by Sphinx


В Н И М А Н И Е
Сайт не распространяет и не хранит электронные версии произведений, а лишь бесплатно и без коммерческой выгоды (не требуя взамен платы,
SMS и т.д.) предоставляет доступ к создаваемому пользователями каталогу ссылок на торрент-файлы, которые содержат только списки хеш-сумм.
Убедительная просьба с жалобами обращаться напрямую к пользователю, разместившему торрент файл.

Вверх