Loading...
Error

Чистая проба (8 серий из 8) (Алексей Праздников) [2011 г., детектив, криминал, приключения, DVDRip]

Статистика раздачи
Размер:  3,9 GB   |    Зарегистрирован:  3 года 1 месяц   |    Скачан:  0 раз

Полного источника не было: 2 года 2 месяца

Сидов:  0  |  0 KB/s  ]   Личеров:  0  |  0 KB/s  ]

* - сиды/пиры с внешних источников

   
 
Автор Сообщение

UseR Пол:Муж

18-Окт-2013 07:12

Чистая проба


Год выпуска: 2011
Жанр: детектив, криминал, приключения
Страна: Россия
Режиссер: Алексей Праздников
В ролях: Алексей Макаров, Татьяна Арнтгольц, Евгений Пронин, Даниил Кокин, Егор Бакулин, Иван Жидков, Алексей Барабаш, Светлана Смирнова, Кристина Кузьмина, Егор Томошевский
Сюжет фильма:
Скромный почвовед Юлия не подозревала, чем обернутся ее исследования в окрестностях маленького сибирского городка. Совершенно неожиданно на девушку совершают нападение, похитив пробы почв, не имеющие, казалось бы, никакой ценности. Единственный свидетель случившегося погибает при загадочных обстоятельствах. Друг погибшего, Андрей (Евгений Пронин), берется за поиски виновных. Познакомившись с симпатичной ему Юлей, он помогает девушке противостоять начальнику райотдела милиции - Шерифу. Имея неограниченное влияние, тот стремится выдворить из города сначала Юлю, а потом и Андрея, фабрикуя против него улики и обвиняя в убийстве. С огромным трудом герою удается уйти от преследования. Молодые люди не сразу понимают, в чем причина такой ожесточенности. Пока, в результате начатого ими расследования, Юля и Андрей не находят пропавшие пробы, а в них - крупицы чистейшего золота, которое невозможно встретить в природе. Информация о драгоценном металле распространяется по всему городу: похищенная у Юли маршрутная карта с помеченным местом находки попадает на черный рынок. В городе начинается настоящая золотая лихорадка. В поиски включаются и сами герои, очень скоро набредая на старые выработки кирпичного завода, где, скрытый от посторонних глаз, находится действующий цех по промывке и очистке золота от примесей. К удивлению героев, его деятельность прикрывает сам Шериф, который оказывается лишь пешкой в руках куда более влиятельного человека. Личность последнего обернется для героев полной неожиданностью и реальной опасностью для жизни.


Качество видео: DVDRip

Продолжительность: 8 серий ~00:48:44
Формат: avi
Видео: XviD, 720x400, 1328 kbps
Аудио: русский, оригинал, AC3 2.0, 96 kbps

Код:

General
Complete name                    : D:\Video\Чистая проба\Chistaya.Proba.(1.seriya.iz.8).2011.XviD.DVDRip.avi
Format                           : AVI
Format/Info                      : Audio Video Interleave
File size                        : 500 MiB
Duration                         : 48mn 44s
Overall bit rate                 : 1 434 Kbps
Movie name                       : Chistaya.Proba.(1.seriya.iz.8).2011.O.DVDRip.IRONCLUB
Director                         : -=IRONCLUB=-
Writing application              : VirtualDubMod 1.5.10.2 (build 2540/release)
Original source form/Name        : Movie
Copyright                        : http://ironclub.tv/

Video
ID                               : 0
Format                           : MPEG-4 Visual
Format profile                   : Streaming Video@L1
Format settings, BVOP            : No
Format settings, QPel            : No
Format settings, GMC             : No warppoints
Format settings, Matrix          : Custom
Codec ID                         : XVID
Codec ID/Hint                    : XviD
Duration                         : 48mn 44s
Bit rate                         : 1 328 Kbps
Width                            : 720 pixels
Height                           : 400 pixels
Display aspect ratio             : 16/9
Frame rate                       : 25.000 fps
Resolution                       : 24 bits
Colorimetry                      : 4:2:0
Scan type                        : Progressive
Bits/(Pixel*Frame)               : 0.184
Stream size                      : 463 MiB (93%)
Writing library                  : XviD 1.2.1 (UTC 2008-12-04)

Audio
ID                               : 1
Format                           : AC-3
Format/Info                      : Audio Coding 3
Codec ID                         : 2000
Duration                         : 48mn 44s
Bit rate mode                    : Constant
Bit rate                         : 96.0 Kbps
Channel(s)                       : 2 channels
Channel positions                : L R
Sampling rate                    : 48.0 KHz
Stream size                      : 33.5 MiB (7%)
Alignment                        : Split accross interleaves
Interleave, duration             : 40 ms (1.00 video frame)
Interleave, preload duration     : 500 ms

picpicpicpicpicpicpicpicpicpic pic pic
Для увеличения картинки щелкните мышкой по превью

Этот торрент недоступен для скачивания без регистрации, однако доступен по публичной magnet-ссылке (источники с публичных трекеров). Перед использованием ссылки прочтите, пожалуйста Пользовательское соглашение, а также как можно дольше оставайтесь на раздаче! Для того, чтобы скачать сам торрент-файл (который видит больше источников), а также для того, чтобы поблагодарить релизера, вам необходимо зарегистрироваться. Если регистрироваться лень - вы можете также попробовать скачать релиз по нашим партнерским ссылкам ниже.

[underverse.su].t32018.torrent
Трекер: Зарегистрирован   [ 18.10.2013 07:12 ]  

Статус: проверено (by 90ytr90 at 18.10.2013 13:43)
Поблагодарили: 1 человек
Тип торрента: публичный - доступные источники с открытых трекеров: 
Размер: 3,9 GB (занимает 0,89 DVDR, для записи нужно 1 болванка DVDR/RW)
 
 


Последний раз редактировалось: UseR (18.10.2013 13:42), всего редактировалось 4 раз(а)

90ytr90 

18-Окт-2013 13:18

Укажите, пожалуйста, в шапке и продолжительности кол-во серий.

Яндекс.Метрика powered by Sphinx


В Н И М А Н И Е
Сайт не распространяет и не хранит электронные версии произведений, а лишь бесплатно и без коммерческой выгоды (не требуя взамен платы,
SMS и т.д.) предоставляет доступ к создаваемому пользователями каталогу ссылок на торрент-файлы, которые содержат только списки хеш-сумм.
Убедительная просьба с жалобами обращаться напрямую к пользователю, разместившему торрент файл.

Вверх