Loading...
Error

Гражданин Кейн / Citizen Kane (Орсон Уэллс) [1941 г., драма, детектив, BDRip] 3xMVO + Original HQ Underverse

Статистика раздачи
Размер:  2,18 GB   |    Зарегистрирован:  3 года 1 месяц   |    Скачан:  27 раз
Сидов:  2  |  0 KB/s  ]   Личеров:  0  |  0 KB/s  ]

* - сиды/пиры с внешних источников

   
 
Автор Сообщение

HQ Underverse 

17-Окт-2013 18:59

Гражданин Кейн / Citizen Kane


Год выпуска: 1941
Жанр: драма, детектив
Страна: США
Режиссер: Орсон Уэллс
В ролях: Орсон Уэллс, Джозеф Коттен, Дороти Коминьоре, Агнес Мурхед, Рут Уоррик, Рэй Коллинз, Эрскин Сэнфорд, Эверет Слоун, Уильям Олленд, Пол Стюарт
Сюжет фильма:
В шикарном поместье умирает газетный магнат Чарльз Фостер Кейн, роняя лишь одно слово: «Роузбад». Смерть Кейна вызывает бурную реакцию в обществе, и группа журналистов берется узнать, кем же он был на самом деле, что он пережил за свою долгую, полную взлетов и падений жизнь… И что все-таки значит это «Роузбад»?

  • Мировая премьера: 1 мая 1941


Качество видео: BDRip

Продолжительность: 01:59:23
Формат: avi
Видео: XviD, 720x524, 1813 kbps
Аудио #1: русский, многоголосый закадровый [профессиональный, Somewax], AC3 2.0, 192 kbps
Аудио #2: русский, многоголосый закадровый [профессиональный, DVD Magic], AC3 2.0, 192 kbps
Аудио #3: русский, многоголосый закадровый [профессиональный, Film Prestige], AC3 2.0, 192 kbps
Аудио #4: английский, оригинал, AC3 1.0, 192 kbps

Код:

General
Complete name                    : D:\Video\Movies\Releases\Citizen.Kane.1941.BDRip.XviD.AC3.3xRus.MVO.Eng.O.HQ.Underverse.avi
Format                           : AVI
Format/Info                      : Audio Video Interleave
Format profile                   : OpenDML
File size                        : 2.18 GiB
Duration                         : 1h 59mn
Overall bit rate                 : 2 612 Kbps
Writing application              : VirtualDubMod 1.5.10.2 (build 2540/release)
Writing library                  : VirtualDubMod build 2540/release

Video
ID                               : 0
Format                           : MPEG-4 Visual
Format profile                   : Streaming Video@L1
Format settings, BVOP            : Yes
Format settings, QPel            : No
Format settings, GMC             : No warppoints
Format settings, Matrix          : Custom
Muxing mode                      : Packed bitstream
Codec ID                         : XVID
Codec ID/Hint                    : XviD
Duration                         : 1h 59mn
Bit rate                         : 1 814 Kbps
Width                            : 720 pixels
Height                           : 524 pixels
Display aspect ratio             : 1.374
Frame rate                       : 23.976 fps
Resolution                       : 24 bits
Colorimetry                      : 4:2:0
Scan type                        : Progressive
Bits/(Pixel*Frame)               : 0.200
Stream size                      : 1.51 GiB (69%)
Writing library                  : XviD 64

Audio #1
ID                               : 1
Format                           : AC-3
Format/Info                      : Audio Coding 3
Codec ID                         : 2000
Duration                         : 1h 59mn
Bit rate mode                    : Constant
Bit rate                         : 192 Kbps
Channel(s)                       : 2 channels
Channel positions                : L R
Sampling rate                    : 48.0 KHz
Stream size                      : 164 MiB (7%)
Alignment                        : Split accross interleaves
Interleave, duration             : 42 ms (1.00 video frame)
Interleave, preload duration     : 500 ms
Title                            : Somewax

Audio #2
ID                               : 2
Format                           : AC-3
Format/Info                      : Audio Coding 3
Codec ID                         : 2000
Duration                         : 1h 59mn
Bit rate mode                    : Constant
Bit rate                         : 192 Kbps
Channel(s)                       : 2 channels
Channel positions                : L R
Sampling rate                    : 48.0 KHz
Stream size                      : 164 MiB (7%)
Alignment                        : Split accross interleaves
Interleave, duration             : 42 ms (1.00 video frame)
Interleave, preload duration     : 500 ms
Title                            : DVD Magic

Audio #3
ID                               : 3
Format                           : AC-3
Format/Info                      : Audio Coding 3
Codec ID                         : 2000
Duration                         : 1h 59mn
Bit rate mode                    : Constant
Bit rate                         : 192 Kbps
Channel(s)                       : 2 channels
Channel positions                : L R
Sampling rate                    : 48.0 KHz
Stream size                      : 164 MiB (7%)
Alignment                        : Split accross interleaves
Interleave, duration             : 42 ms (1.00 video frame)
Interleave, preload duration     : 500 ms
Title                            : Film Prestige

Audio #4
ID                               : 4
Format                           : AC-3
Format/Info                      : Audio Coding 3
Codec ID                         : 2000
Duration                         : 1h 59mn
Bit rate mode                    : Constant
Bit rate                         : 192 Kbps
Channel(s)                       : 1 channel
Channel positions                : C
Sampling rate                    : 48.0 KHz
Stream size                      : 164 MiB (7%)
Alignment                        : Split accross interleaves
Interleave, duration             : 42 ms (1.00 video frame)
Interleave, preload duration     : 500 ms
Title                            : English

Семпл: http://multi-up.com/914321

Релиз группы:

picpicpic

Этот торрент недоступен для скачивания без регистрации, однако доступен по публичной magnet-ссылке (источники с публичных трекеров). Перед использованием ссылки прочтите, пожалуйста Пользовательское соглашение, а также как можно дольше оставайтесь на раздаче! Для того, чтобы скачать сам торрент-файл (который видит больше источников), а также для того, чтобы поблагодарить релизера, вам необходимо зарегистрироваться. Если регистрироваться лень - вы можете также попробовать скачать релиз по нашим партнерским ссылкам ниже.

[underverse.su].t32021.torrent
Трекер: Зарегистрирован   [ 18.10.2013 09:54 ]  

Статус: проверено (by garry at 18.10.2013 10:34)
Поблагодарили: 2 человека
Тип торрента: публичный - доступные источники с открытых трекеров: 
Размер: 2,18 GB (занимает 1/2 DVDR, для записи нужно 1 болванка DVDR/RW)
 
 
Похожие темы
Форум Тема Автор Торрент Отв. Посл. сооб.
Зарубежное кино [DVDRip, Low-Res HDRip, и т.д.] Гражданин гангстер / Citizen Gangster (Нэйтан Морландо / Nathan Morlando) [2011 г., криминал, драма, HDRip] AVO + Original + Sub (Rus,Eng) RG NewCinema
0 | 0

0 | 991

17

03.07.2013 07:11

Зарубежное кино [DVDRip, Low-Res HDRip, и т.д.] Гражданин гангстер / Citizen Gangster (Нэйтан Морландо / Nathan Morlando) [2011 г., криминал, драма, HDRip] MVO + Original 90ytr90
2 | 0

0 | 355

7

30.12.2013 18:01

xUSSR сериалы Гражданин Никто [серии 01-16 из 16] (Владимир Янковский) [2016 г., детектив, HDTVRip] 90ytr90
166 | 77

0 | 347

5

07.11.2016 21:22

T xUSSR сериалы Гражданин Никто [серии 01-20 из 20] (Владимир Янковский) [2016 г., детектив, SATRip] Original (Rus) + hardsub (Ukr) 90ytr90
823 | 139

0 | 235

9

07.11.2016 21:15

Информационно-аналитические передачи Гражданин поэт. Прогон года [2012 г., документальный, DVDRip] Паукан
6 | 0

0 | 2385

6

24.06.2012 13:17



Последний раз редактировалось: HQ Underverse (18.10.2013 09:55), всего редактировалось 2 раз(а)

18-Окт-2013 09:54

Топик был перенесен из форума Анонсы группы HQ Underverse в форум Классика зарубежного кино HQ


HQ Underverse
 

Яндекс.Метрика powered by Sphinx


В Н И М А Н И Е
Сайт не распространяет и не хранит электронные версии произведений, а лишь бесплатно и без коммерческой выгоды (не требуя взамен платы,
SMS и т.д.) предоставляет доступ к создаваемому пользователями каталогу ссылок на торрент-файлы, которые содержат только списки хеш-сумм.
Убедительная просьба с жалобами обращаться напрямую к пользователю, разместившему торрент файл.

Вверх