Loading...
Error

Красная жара / Red Heat (Уолтер Хилл / Walter Hill) [1988 г., боевик, триллер, комедия, криминал, BDRip-AVC] MVO + Original

Статистика раздачи
Размер:  2,1 GB   |    Зарегистрирован:  3 года 1 месяц   |    Скачан:  10 раз

Полного источника не было: 3 месяца 14 дней

Сидов:  0  |  0 KB/s  ]   Личеров:  0  |  0 KB/s  ]

* - сиды/пиры с внешних источников

   
 
Автор Сообщение

Чертёнок Пол:Муж

17-Окт-2013 14:01

Красная жара / Red Heat


Страна: США
Жанр: боевик, триллер, комедия, криминал
Год выпуска: 1988
Продолжительность: 01:44:10
Перевод: Профессиональный (многоголосый, закадровый) + Оригинальный
Субтитры: русские, английские (Forced), английские.
Режиссер: Уолтер Хилл / Walter Hill
В ролях: Арнольд Шварценеггер (Capt. Ivan Danko), Джеймс Белуши (Det. Sgt. Art Ridzik), Питер Бойл (Cmdr. Lou Donnelly), Эд О’Росс (Viktor «Rosta» Rostavili), Лоренс Фишбёрн (Lt. Charlie Stobbs), Джина Гершон (Catherine «Cat» Manzetti), Ричард Брайт (Det. Sgt. Gallagher), Дж.В. Смит (Salim), Брент Дженнингс (Abdul Elijah), Гретхен Палмер (Hooker), Прюитт Тэйлор Винс (Night Clerk), Майкл Дж. Хэгерти (Pat Nunn)
Описание: В доперестроечные времена торговля наркотиками была из ряда вон выходящим преступлением. На борьбу с грузинским мафиози, который используя все связи США, пытается пристрастить к кокаину советских граждан, выходит гроза преступного мира милиционер Иван Данко. Этот парень не любит шутить, и доказательством серьезности его намерений служат большие мускулы и пистолет. Чтобы арестовать бандита, Иван направляется в Чикаго - рассадник капиталистической заразы. Там его помощником становится болтливый полицейский. Вместе они обезвреживают мафиози, разрушив при этом полгорода и расстреляв пару десятков негодяев.
MPAA: R - Лицам до 17 лет обязательно присутствие взрослого
Семпл
Качество: BDRip
Контейнер: MKV
Видео: AVC, 1024x554 (16:9), 2241 kbps, 24 fps, 0.165 bpp
Аудио №1: русский / AC3 / 5.1 / 48 kHz / 448 kbps
Аудио №2: английский / AC3 / 2.0 / 48 kHz / 192 kbps
Навигация по главам: есть


Format : Matroska
Format version : Version 2
File size : 2.10 GiB
Duration : 1h 44mn
Overall bit rate : 2 883 Kbps
Movie name : = Красная жара / Red Heat BDRip by SC Kosmos =
Encoded date : UTC 2013-10-16 13:45:37
Writing application : mkvmerge v5.3.0 ('I could have danced') built on Feb 9 2012 10:38:07
Writing library : libebml v1.2.3 + libmatroska v1.3.0

Video
ID : 1
Format : AVC
Format/Info : Advanced Video Codec
Format profile : High@L4.1
Format settings, CABAC : Yes
Format settings, ReFrames : 12 frames
Codec ID : V_MPEG4/ISO/AVC
Duration : 1h 44mn
Bit rate : 2 241 Kbps
Width : 1 024 pixels
Height : 554 pixels
Display aspect ratio : 16:9
Frame rate : 24.000 fps
Color space : YUV
Chroma subsampling : 4:2:0
Bit depth : 8 bits
Scan type : Progressive
Bits/(Pixel*Frame) : 0.165
Stream size : 1.59 GiB (76%)
Title : Красная жара / Red Heat BDRip by SC Kosmos
Writing library : x264 core 138 r2358 9e941d1
Encoding settings : cabac=1 / ref=12 / deblock=1:-2:-2 / analyse=0x3:0x113 / me=umh / subme=11 / psy=1 / psy_rd=1.00:0.00 / mixed_ref=1 / me_range=48 / chroma_me=1 / trellis=2 / 8x8dct=1 / cqm=0 / deadzone=21,11 / fast_pskip=0 / chroma_qp_offset=-2 / threads=12 / lookahead_threads=1 / sliced_threads=0 / nr=0 / decimate=1 / interlaced=0 / bluray_compat=0 / constrained_intra=0 / bframes=14 / b_pyramid=2 / b_adapt=1 / b_bias=0 / direct=1 / weightb=1 / open_gop=0 / weightp=2 / keyint=240 / keyint_min=24 / scenecut=40 / intra_refresh=0 / rc_lookahead=40 / rc=2pass / mbtree=0 / bitrate=2241 / ratetol=1.0 / qcomp=0.60 / qpmin=0 / qpmax=69 / qpstep=4 / cplxblur=20.0 / qblur=0.5 / vbv_maxrate=50000 / vbv_bufsize=50000 / nal_hrd=none / ip_ratio=1.40 / pb_ratio=1.30 / aq=1:1.00
Language : English
Default : Yes
Forced : No

Audio #1
ID : 2
Format : AC-3
Format/Info : Audio Coding 3
Mode extension : CM (complete main)
Codec ID : A_AC3
Duration : 1h 44mn
Bit rate mode : Constant
Bit rate : 448 Kbps
Channel(s) : 6 channels
Channel positions : Front: L C R, Side: L R, LFE
Sampling rate : 48.0 KHz
Bit depth : 16 bits
Compression mode : Lossy
Stream size : 334 MiB (16%)
Title : MVO [ BluRay CEE ]
Language : Russian
Default : Yes
Forced : No

Audio #2
ID : 3
Format : AC-3
Format/Info : Audio Coding 3
Mode extension : CM (complete main)
Codec ID : A_AC3
Duration : 1h 44mn
Bit rate mode : Constant
Bit rate : 192 Kbps
Channel(s) : 2 channels
Channel positions : Front: L R
Sampling rate : 48.0 KHz
Bit depth : 16 bits
Compression mode : Lossy
Stream size : 143 MiB (7%)
Language : English
Default : No
Forced : No

Text #1
ID : 4
Format : UTF-8
Codec ID : S_TEXT/UTF8
Codec ID/Info : UTF-8 Plain Text
Language : Russian
Default : Yes
Forced : No

Text #2
ID : 5
Format : UTF-8
Codec ID : S_TEXT/UTF8
Codec ID/Info : UTF-8 Plain Text
Title : Forced
Language : English
Default : No
Forced : No

Text #3
ID : 6
Format : UTF-8
Codec ID : S_TEXT/UTF8
Codec ID/Info : UTF-8 Plain Text
Language : English
Default : No
Forced : No

Menu
00:00:00.000 : en:Russian Gym
00:07:08.833 : en:Snow Fight
00:14:47.583 : en:Main Titles
00:21:55.916 : en:Iron Jaw
00:32:48.833 : en:Easy Prey
00:39:28.208 : en:Shoot-Out
00:51:03.333 : en:Rosta Escapes
01:03:08.833 : en:Fallen Comrade
01:12:26.833 : en:Chicago Gangsters
01:24:58.291 : en:Fun Bag Patrol
01:28:53.166 : en:Clean Head Bust
01:37:43.625 : en:"I Do This For A Living"

picpicpicpic
Для увеличения картинки щелкните мышкой по превью

Этот торрент недоступен для скачивания без регистрации, однако доступен по публичной magnet-ссылке (источники с публичных трекеров). Перед использованием ссылки прочтите, пожалуйста Пользовательское соглашение, а также как можно дольше оставайтесь на раздаче! Для того, чтобы скачать сам торрент-файл (который видит больше источников), а также для того, чтобы поблагодарить релизера, вам необходимо зарегистрироваться. Если регистрироваться лень - вы можете также попробовать скачать релиз по нашим партнерским ссылкам ниже.

[underverse.su].t31993.torrent
Трекер: Зарегистрирован   [ 17.10.2013 14:01 ]  

Статус: проверено (by Чертёнок at 17.10.2013 14:02)
Поблагодарили: 1 человек
Тип торрента: публичный - доступные источники с открытых трекеров: 
Размер: 2,1 GB (занимает 0,48 DVDR, для записи нужно 1 болванка DVDR/RW)
 
 
Похожие темы
Форум Тема Автор Торрент Отв. Посл. сооб.
Зарубежное кино [HDDVDRip / BDRip / WEB-DL / HDTV 1080/720р] Красная жара / Red Heat (Уолтер Хилл) [1988 г., боевик, триллер, комедия, криминал, BDRip 1080p] Чертёнок
3 | 0

1 | 437

4

03.08.2013 16:17

* Короткометражные мультфильмы Красная жаба / Червона жаба (Маша Медведь) [2008 г., анимация, семейный, приключения, DVDRip] (Ukr) ARI71
2 | 0

0 | 72

1

29.11.2016 08:17


Яндекс.Метрика powered by Sphinx


В Н И М А Н И Е
Сайт не распространяет и не хранит электронные версии произведений, а лишь бесплатно и без коммерческой выгоды (не требуя взамен платы,
SMS и т.д.) предоставляет доступ к создаваемому пользователями каталогу ссылок на торрент-файлы, которые содержат только списки хеш-сумм.
Убедительная просьба с жалобами обращаться напрямую к пользователю, разместившему торрент файл.

Вверх