Loading...
Error

Фанатка / Swimfan (Джон Полсон/John Polson) [2002 г., триллер, драма, WEB-DLRip] Dub

Статистика раздачи
Размер:  1,46 GB   |    Зарегистрирован:  3 года 1 месяц   |    Скачан:  10 раз

Полного источника не было: 11 месяцев

Сидов:  0  |  0 KB/s  ]   Личеров:  0  |  0 KB/s  ]

* - сиды/пиры с внешних источников

   
 
Автор Сообщение

Паукан Пол:Муж

17-Окт-2013 08:26

Фанатка / Swimfan


Название: Фанатка
Оригинальное название: Swimfan
Год выхода: 2002
Жанр: триллер, драма
Режиссер: Джон Полсон / John Polson
В ролях: Джесси Брэдфорд, Эрика Кристенсен, Шири Эпплби, Кейт Бертон, Клэйн Кроуфорд, Джейсон Риттер, Киа Гудвин, Дэн Хедайя, Майкл Хиггинс, Ник Сэндоу и др.

О фильме:
Бен Кронин — баловень судьбы, предмет восхищения многочисленных друзей и поклонников. У него потрясающая подружка и неплохие перспективы попасть в университетскую спортивную команду. Не думайте, что все это дается ему легко — каждый день Бен проводит в бассейне много часов в непрерывных тренировках, работает в местной больнице и с трудом находит время, чтобы провести его со своей любимой Эми.
Внезапно жизнь Бена переворачивается вверх тормашками. В город приезжает «новая девчонка» — Мэдисон Белл, и сразу кладет глаз на симпатичного парня. Их первые встречи довольно невинны, но она хочет большего… Соблазнение Бена — лишь начало; она становится его самой верной фанаткой и одновременно — его ночным кошмаром, когда ее навязчивость переходит в ярость, предательство и убийство…



Страна: США
Продолжительность: 01:24:55
Перевод: Профессиональный (дублированный)|МОСФИЛЬМ-мастер - DVD9 R5 «West Video», 2003|

Файл
Кодек: XviD
Качество: WEB-DLRip
Видео: 720x304, 23.976 fps, 2003 Kbps
Звук: AC3, 6 ch, 448 kbps, 48 kHz
Общее
Полное имя : Фанатка 2002.WEB-DLRip.avi
Формат : AVI
Формат/Информация : Audio Video Interleave
Размер файла : 1,46 Гбайт
Продолжительность : 1 ч. 24 м.
Общий поток : 2460 Кбит/сек
Программа кодирования : VirtualDubMod 1.5.10.3 | www.virtualdub-fr.org || (build 2550/release)
Библиотека кодирования : VirtualDubMod build 2550/release

Видео
Идентификатор : 0
Формат : MPEG-4 Visual
Профиль формата : Advanced Simple@L5
Параметр BVOP формата : 1
Параметр QPel формата : Нет
Параметр GMC формата : Без точки перехода
Параметр матрицы формата : Выборочная
Идентификатор кодека : XVID
Идентификатор кодека/Подсказка : XviD
Продолжительность : 1 ч. 24 м.
Битрейт : 2003 Кбит/сек
Ширина : 720 пикс.
Высота : 304 пикс.
Соотношение сторон : 2,35:1
Частота кадров : 23,976 кадр/сек
Цветовое пространство : YUV
Подвыборка цветности : 4:2:0
Битовая глубина : 8 бит
Тип развёртки : Прогрессивная
Метод сжатия : С потерями
Бит/(Пиксели*Кадры) : 0.382
Размер потока : 1,19 Гбайт (81%)
Библиотека кодирования : XviD 73

Аудио
Идентификатор : 1
Формат : AC-3
Формат/Информация : Audio Coding 3
Расширение режима : CM (complete main)
Идентификатор кодека : 2000
Продолжительность : 1 ч. 24 м.
Вид битрейта : Постоянный
Битрейт : 448 Кбит/сек
Канал(ы) : 6 канала(ов)
Расположение каналов : Front: L C R, Side: L R, LFE
Частота : 48,0 КГц
Битовая глубина : 16 бит
Метод сжатия : С потерями
Размер потока : 272 Мбайт (18%)
Выравнивание : Разделение по промежуткам
Продолжительность промежутка : 42 мс. (1,00 видеокадр)
Время предзагрузки промежутка : 500 ms
Релиз от: Leon-masl

pic pic pic
Для увеличения картинки щелкните мышкой по превью

Этот торрент недоступен для скачивания без регистрации, однако доступен по публичной magnet-ссылке (источники с публичных трекеров). Перед использованием ссылки прочтите, пожалуйста Пользовательское соглашение, а также как можно дольше оставайтесь на раздаче! Для того, чтобы скачать сам торрент-файл (который видит больше источников), а также для того, чтобы поблагодарить релизера, вам необходимо зарегистрироваться. Если регистрироваться лень - вы можете также попробовать скачать релиз по нашим партнерским ссылкам ниже.

[underverse.su].t31978.torrent
Трекер: Зарегистрирован   [ 17.10.2013 08:26 ]  

Статус: проверено (by Паукан at 17.10.2013 08:26)
Поблагодарили: пока никто не поблагодарил...
Тип торрента: публичный - доступные источники с открытых трекеров: 
Размер: 1,46 GB (занимает 0,33 DVDR, для записи нужно 1 болванка DVDR/RW)
 
 
Похожие темы
Форум Тема Автор Торрент Отв. Посл. сооб.
Архив Фанатка / Groupie (Марк Л. Лестер) [2010 г., триллер, криминал, детектив, DVD-5] andrej-ku
0 | 0

2 | 1443

2

05.11.2011 14:45


Яндекс.Метрика powered by Sphinx


В Н И М А Н И Е
Сайт не распространяет и не хранит электронные версии произведений, а лишь бесплатно и без коммерческой выгоды (не требуя взамен платы,
SMS и т.д.) предоставляет доступ к создаваемому пользователями каталогу ссылок на торрент-файлы, которые содержат только списки хеш-сумм.
Убедительная просьба с жалобами обращаться напрямую к пользователю, разместившему торрент файл.

Вверх