Loading...
Error

Пиноккио / Pinocchio (Энцо Д’Ало / Enzo D'Alo) [2012 г., мультфильм, фэнтези, HDRip] MVO + Original

Статистика раздачи
Размер:  1,46 GB   |    Зарегистрирован:  3 года 1 месяц   |    Скачан:  11 раз

Полного источника не было: 1 год 9 месяцев

Сидов:  0  |  0 KB/s  ]   Личеров:  0  |  0 KB/s  ]

* - сиды/пиры с внешних источников

   
 
Автор Сообщение

Паукан Пол:Муж

15-Окт-2013 09:20

Пиноккио / Pinocchio


Страна: Италия, Бельгия, Франция, Люксембург / 2d3D Animations, Cometa Film...
Жанр: мультфильм, фэнтези
Год выпуска: 2012
Продолжительность: 01:20:32

Перевод: профессиональный (многоголосый, закадровый)
Оригинальная аудиодорожка: английский
Cубтитры: русский

Режиссер: Энцо Д’Ало / Enzo D'Alo

Роли озвучивали: Роберт Нэйлор, Рокко Папалео, Паоло Руффини

Описание: Однажды безоблачной ночью старый Джепетто замечтался, глядя в небеса на сверкающие звезды. Он загадал желание, чтобы вырезанный из дерева мальчик Пиноккио ожил и стал ему настоящим сыном, о котором он мечтал всю свою жизнь. И его желание, наконец, сбылось. Поучительную сказку про Пиноккио знают дети и взрослые всего мира. Маленький деревянный человечек заставил поверить людей в чудеса и доказал, что добро всегда побеждает, а мечты сбываются, нужно только сильно верить в это.
Сэмпл
Качество: HDRip / P1nocch1o.2012.iTALiAN.DTS.HDMA.720p.BluRay.x264-AT0MiC.mkv + DVD9 R5
Формат: AVI

Видео: 720x384 (1.85:1), 24.000 fps, XVID ~2031 kbps avg, 0.306 bit/pixel
Аудио: Русский 48 kHz, AC3, 6 ch, 448.00 kbps Constant
Общее
Полное имя : Pinokkio.2012.P.HDRip_[Youtracker]_by_avproh.avi
Формат : AVI
Формат/Информация : Audio Video Interleave
Размер файла : 1,46 Гбайт
Продолжительность : 1 ч. 23 м.
Общий поток : 2489 Кбит/сек
Программа кодирования : VirtualDubModRus 1.5.10.2 (build 2542/release)
Библиотека кодирования : VirtualDubMod build 2542/release

Видео
Идентификатор : 0
Формат : MPEG-4 Visual
Профиль формата : Advanced Simple@L5
Параметр BVOP формата : 1
Параметр QPel формата : Нет
Параметр GMC формата : Без точки перехода
Параметр матрицы формата : Выборочная
Идентификатор кодека : XVID
Идентификатор кодека/Подсказка : XviD
Продолжительность : 1 ч. 23 м.
Битрейт : 2031 Кбит/сек
Ширина : 720 пикселей
Высота : 384 пикселя
Соотношение сторон : 1,85:1
Частота кадров : 24,000 кадра/сек
Цветовое пространство : YUV
Субдискретизация насыщенности : 4:2:0
Битовая глубина : 8 бит
Тип развёртки : Прогрессивная
Метод сжатия : С потерями
Бит/(Пиксели*Кадры) : 0.306
Размер потока : 1,19 Гбайт (82%)
Библиотека кодирования : XviD 73

Аудио
Идентификатор : 1
Формат : AC-3
Формат/Информация : Audio Coding 3
Расширение режима : CM (complete main)
Параметр Endianness формата : Big
Идентификатор кодека : 2000
Продолжительность : 1 ч. 23 м.
Вид битрейта : Постоянный
Битрейт : 448 Кбит/сек
Каналы : 6 каналов
Расположение каналов : Front: L C R, Side: L R, LFE
Частота : 48,0 КГц
Битовая глубина : 16 бит
Метод сжатия : С потерями
Размер потока : 269 Мбайт (18%)
Выравнивание : Разделение по промежуткам
Продолжительность промежутка : 42 мс. (1,00 видеокадр)
Время предзагрузки промежутка : 500 мс.
pic pic pic
Для увеличения картинки щелкните мышкой по превью

Этот торрент недоступен для скачивания без регистрации, однако доступен по публичной magnet-ссылке (источники с публичных трекеров). Перед использованием ссылки прочтите, пожалуйста Пользовательское соглашение, а также как можно дольше оставайтесь на раздаче! Для того, чтобы скачать сам торрент-файл (который видит больше источников), а также для того, чтобы поблагодарить релизера, вам необходимо зарегистрироваться. Если регистрироваться лень - вы можете также попробовать скачать релиз по нашим партнерским ссылкам ниже.

[underverse.su].t31914.torrent
Трекер: Зарегистрирован   [ 15.10.2013 09:20 ]  

Статус: проверено (by Паукан at 15.10.2013 09:20)
Поблагодарили: 1 человек
Тип торрента: публичный - доступные источники с открытых трекеров: 
Размер: 1,46 GB (занимает 1/3 DVDR, для записи нужно 1 болванка DVDR/RW)
 
 
Похожие темы
Форум Тема Автор Торрент Отв. Посл. сооб.
Мультфильмы HQ Пиноккио / Pinocchio (Хэмильтон Ласки, Бен Шарпстин) [1940 г., фэнтези, мюзикл, семейный, мультфильм, BDRip] Печаль'ka
0 | 0

1 | 2024

1

19.06.2009 14:20

Зарубежные сериалы [BD / Remux / BDRip / WEB-DL / HDTV 1080/720р] Пиноккио / Pinocchio (1-4 серии из 4) (Анна Джастис) [2013 г., семейный, HDTVRip 1080p] MVO makkol
0 | 0

0 | 800

4

11.12.2015 22:18


Яндекс.Метрика powered by Sphinx


В Н И М А Н И Е
Сайт не распространяет и не хранит электронные версии произведений, а лишь бесплатно и без коммерческой выгоды (не требуя взамен платы,
SMS и т.д.) предоставляет доступ к создаваемому пользователями каталогу ссылок на торрент-файлы, которые содержат только списки хеш-сумм.
Убедительная просьба с жалобами обращаться напрямую к пользователю, разместившему торрент файл.

Вверх