Loading...
Error

Загадочная кожа / Mysterious Skin (Грегг Араки / Gregg Araki) [2004, драма, DVDRip-AVC] MVO + Original

Статистика раздачи
Размер:  1,69 GB   |    Зарегистрирован:  3 года 1 месяц   |    Скачан:  6 раз

Полного источника не было: 2 года 11 месяцев

Сидов:  0  |  0 KB/s  ]   Личеров:  0  |  0 KB/s  ]

* - сиды/пиры с внешних источников

   
 
Автор Сообщение

Antony Boger Пол:Муж

12-Окт-2013 07:01

Загадочная кожа / Mysterious Skin


Год выпуска: 2004
Страна: США , Нидерланды
Жанр: драма
Режиссер: Грегг Араки / Gregg Araki
В ролях: Джозеф Гордон-Левитт, Брэди Корбет, Мишель Трахтенберг, Джеффри Ликон
Сюжет фильма:
Когда Брайану было восемь лет, он очнулся в погребе возле своего дома в Канзасе, у него шла кровь из носа, и он понятия не имел, как там оказался. После этого его жизнь стала другой — он боится темноты, мочится в постель, и ему снятся страшные сны.

Сейчас Брайану 18. Нилу тоже 18, и он жаждет любовных отношений, которые были у него с тренером малой лиги, когда ему было восемь лет. Когда молодые люди знакомятся, они начинают осознавать, что события, оказавшие на них самое сильное влияние в детстве, были не тем, чем казались…
Мировая премьера: 3 сентября 2004
Российская премьера: 26 мая 2005
Продолжительность: 01:45:05
Видео: x264, 720x480 AR 16/9, 1426 kbps
Аудио #1: русский, многоголосый закадровый [профессиональный], AC3 5.1, 384 kbps
Аудио #2: английский, оригинал, AC3 5.1, 448 kbps
Субтитры #1: вшитые отключаемые, S_TEXT/UTF8, русский
Субтитры #2: вшитые отключаемые, S_TEXT/UTF8, английский
Качество видео: DVDRip-AVC
Формат: MKV

Код:

General
Format                           : Matroska
File size                        : 1.69 GiB
Duration                         : 1h 45mn
Overall bit rate                 : 2 305 Kbps
Encoded date                     : UTC 2012-08-13 12:29:07
Writing application              : mkvmerge v5.6.0 ('Kenya Kane') built on May 27 2012 16:44:04
Writing library                  : libebml v1.2.3 + libmatroska v1.3.0

Video
ID                               : 1
Format                           : AVC
Format/Info                      : Advanced Video Codec
Format profile                   : High@L3.1
Format settings, CABAC           : Yes
Format settings, ReFrames        : 8 frames
Muxing mode                      : Container profile=Unknown@3.1
Codec ID                         : V_MPEG4/ISO/AVC
Duration                         : 1h 44mn
Bit rate                         : 1 427 Kbps
Width                            : 720 pixels
Height                           : 480 pixels
Display aspect ratio             : 16/9
Frame rate                       : 23.976 fps
Standard                         : NTSC
Resolution                       : 24 bits
Colorimetry                      : 4:2:0
Scan type                        : Progressive
Bits/(Pixel*Frame)               : 0.172
Stream size                      : 1.05 GiB (62%)
Writing library                  : x264 core 125 r2200 999b753
Encoding settings                : cabac=1 / ref=8 / deblock=1:-2:-2 / analyse=0x3:0x133 / me=umh / subme=11 / psy=1 / psy_rd=1.10:0.10 / mixed_ref=1 / me_range=32 / chroma_me=1 / trellis=2 / 8x8dct=1 / cqm=0 / deadzone=21,11 / fast_pskip=0 / chroma_qp_offset=-3 / threads=6 / lookahead_threads=1 / sliced_threads=0 / nr=0 / decimate=1 / interlaced=0 / bluray_compat=0 / constrained_intra=0 / bframes=10 / b_pyramid=2 / b_adapt=2 / b_bias=0 / direct=3 / weightb=1 / open_gop=0 / weightp=2 / keyint=240 / keyint_min=23 / scenecut=40 / intra_refresh=0 / rc=crf / mbtree=0 / crf=19.0 / qcomp=0.60 / qpmin=0 / qpmax=69 / qpstep=4 / ip_ratio=1.40 / pb_ratio=1.30 / aq=1:0.90

Audio #1
ID                               : 2
Format                           : AC-3
Format/Info                      : Audio Coding 3
Codec ID                         : A_AC3
Duration                         : 1h 45mn
Bit rate mode                    : Constant
Bit rate                         : 384 Kbps
Channel(s)                       : 6 channels
Channel positions                : Front: L C R, Surround: L R, LFE
Sampling rate                    : 48.0 KHz
Stream size                      : 289 MiB (17%)
Title                            : MVO - AC3, 48KHz, 6ch, 384 kbps
Language                         : Russian

Audio #2
ID                               : 3
Format                           : AC-3
Format/Info                      : Audio Coding 3
Codec ID                         : A_AC3
Duration                         : 1h 45mn
Bit rate mode                    : Constant
Bit rate                         : 448 Kbps
Channel(s)                       : 6 channels
Channel positions                : Front: L C R, Surround: L R, LFE
Sampling rate                    : 48.0 KHz
Stream size                      : 337 MiB (19%)
Title                            : Original - AC3, 48KHz, 6ch, 448 kbps

Text #1
ID                               : 4
Format                           : UTF-8
Codec ID                         : S_TEXT/UTF8
Codec ID/Info                    : UTF-8 Plain Text
Language                         : Russian

Text #2
ID                               : 5
Format                           : UTF-8
Codec ID                         : S_TEXT/UTF8
Codec ID/Info                    : UTF-8 Plain Text

Menu
00:00:00.000                     : :Opening Sequence
00:02:26.167                     : :Brian, Summer 1981
00:06:00.901                     : :Neil, Summer 1981
00:15:56.101                     : :October 1983
00:20:33.635                     : :November 1987
00:28:45.369                     : :Fall 1991
00:43:07.337                     : :Detective Work
00:57:40.671                     : :November, December 1991
01:12:05.838                     : :Birthday
01:18:33.440                     : :Brighton Beach
01:25:46.440                     : :Christmas Eve 1991
01:41:44.874                     : :End Credits
picpicpicpicpicpic
Для увеличения картинки щелкните мышкой по превью

Этот торрент недоступен для скачивания без регистрации, однако доступен по публичной magnet-ссылке (источники с публичных трекеров). Перед использованием ссылки прочтите, пожалуйста Пользовательское соглашение, а также как можно дольше оставайтесь на раздаче! Для того, чтобы скачать сам торрент-файл (который видит больше источников), а также для того, чтобы поблагодарить релизера, вам необходимо зарегистрироваться. Если регистрироваться лень - вы можете также попробовать скачать релиз по нашим партнерским ссылкам ниже.

[underverse.su].t31812.torrent
Трекер: Зарегистрирован   [ 12.10.2013 15:27 ]  

Статус: проверено (by Чертёнок at 12.10.2013 15:46)
Поблагодарили: 1 человек
Тип торрента: публичный - доступные источники с открытых трекеров: 
Размер: 1,69 GB (занимает 0,39 DVDR, для записи нужно 1 болванка DVDR/RW)
 
 
Похожие темы
Форум Тема Автор Торрент Отв. Посл. сооб.
Зарубежное кино [DVDRip, Low-Res HDRip, и т.д.] Загадочная история Бенджамина Баттона / The Curious Case of Benjamin Button (Дэвид Финчер) [2008 г., фантастика, драма, детектив, BDRip] HQ-ViDEO ЭГО
1 | 0

18 | 3473

64

26.05.2010 11:59

Зарубежное кино [DVDRip, Low-Res HDRip, и т.д.] Загадочная история Бенджамина Баттона / The Curious Case of Benjamin Button (Дэвид Финчер / David Fincher) [2008 г., Драма, HDRip-AVC] Dub + Original (Eng) + Sub (Rus, Eng) M-i-i-i-ke
2 | 0

3 | 1048

10

01.02.2014 14:11

Зарубежное кино [DVDRip, Low-Res HDRip, и т.д.] Загадочная история Бенджамина Баттона / The Curious Case of Benjamin Button (Дэвид Финчер) [2008 г., фантастика, драма, детектив, BDRip-AVC] Dub Garnett
1 | 0

0 | 1304

30

07.01.2013 07:26

Зарубежное кино [DVDRip, Low-Res HDRip, и т.д.] Загадочная история Бенджамина Баттона / The Curious Case of Benjamin Button (Дэвид Финчер / David Fincher) [2009 г., фантастика, драма, детектив, HDRip] AVO (Сербин) 90ytr90
7 | 0

0 | 534

11

17.09.2014 07:37

Зарубежное кино [DVDRip, Low-Res HDRip, и т.д.] Загадочная история Бенджамина Баттона / The Curious Case of Benjamin Button (Дэвид Финчер / David Fincher) [2009 г., фантастика, драма, детектив, HDRip] Dub 90ytr90
44 | 1

0 | 910

5

23.05.2016 18:55

Зарубежное кино [HDDVDRip / BDRip / WEB-DL / HDTV 1080/720р] Загадочная история Бенджамина Баттона / The Curious Case of Benjamin Button (Дэвид Финчер / David Fincher) [2009 г., фантастика, драма, детектив, BDRip 1080p] Dub + Original (Eng) + Sub (Rus, Eng) 90ytr90
10 | 1

0 | 550

6

17.09.2014 07:30

Зарубежное кино [HDDVDRip / BDRip / WEB-DL / HDTV 1080/720р] Загадочная история Бенджамина Баттона / The Curious Case of Benjamin Button (Дэвид Финчер / David Fincher) [2009 г., фантастика, драма, детектив, BDRip 720p] 2xDub (Rus, Ukr) + MVO (Киномания) + AVO... 90ytr90
29 | 0

0 | 878

3

23.05.2016 19:20



Последний раз редактировалось: Antony Boger (12.10.2013 15:40), всего редактировалось 2 раз(а)

Яндекс.Метрика powered by Sphinx


В Н И М А Н И Е
Сайт не распространяет и не хранит электронные версии произведений, а лишь бесплатно и без коммерческой выгоды (не требуя взамен платы,
SMS и т.д.) предоставляет доступ к создаваемому пользователями каталогу ссылок на торрент-файлы, которые содержат только списки хеш-сумм.
Убедительная просьба с жалобами обращаться напрямую к пользователю, разместившему торрент файл.

Вверх