Loading...
Error

Молодёжка (Сергей Арланов) / Серии 1-40 (40) (Сергей Арланов) [2013 г., драма, молодежный, SatRip]

Статистика раздачи
Размер:  21,23 GB   |    Зарегистрирован:  2 года 11 месяцев   |    Скачан:  0 раз

Полного источника не было: 2 года 2 месяца

Сидов:  0  |  0 KB/s  ]   Личеров:  0  |  0 KB/s  ]

* - сиды/пиры с внешних источников

   
 
Автор Сообщение

UseR Пол:Муж

10-Окт-2013 05:52

МОЛОДЁЖКА
Год выпуска: 2013
Жанр: драма, молодежный
Страна: Россия
Режиссер: Сергей Арланов
В ролях: Серафима Низовская, Владимир Зайцев, Сергей Габриэлян, Денис Никифоров, Валентина Ананьина, Сергей Комаров, Михаил Жигалов, Фёдор Бондарчук, Анатолий Лобоцкий, Ксения Лаврова-Глинка, Макар Запорожский, Александр Соколовский, Влад Канопка, Илья Коробко, Игорь Огурцов, Анна Михайловская, Иван Жвакин, Мария Иващенко, Николай Добрынин, Игорь Арташонов, Андрей Новиков, Виктория Таранец, Ольга Стрелецкая, Андрей Харыбин, Екатерина Молоховская, Нина Есина, Егор Федотов, Юлия Маргулис, Иван Дубровский, Владимир Чуприков, Вячеслав Фетисов, Варвара Бородина, Анжелика Аристова, Ирина Крохина, Иван Литвинов, Александра Верхошанская, Артур Казберов, Алексей Булатов, Федор Румянцев, Дмитрий Попов, Юрий Соколов, Егор Вадов, Дмитрий Родонов и др.
Сюжет фильма:
«Медведи» никогда не были топ-командой молодежной лиги. Вратарь слишком умный, защита слишком вялая, а лидеры только и делают, что тянут одеяло на себя. Они умеют вместе выходить на площадку, но еще не умеют вместе играть...
Но теперь все будет по-другому — за команду берется молодой тренер Сергей Макеев. Когда-то он был звездой НХЛ, но после травмы завершил карьеру игрока и вернулся на родину.
Перед новоиспеченным тренером стоит невыполнимая задача — выиграть чемпионат и создать команду первоклассных хоккеистов. Макеев должен превратить ребят в самых настоящих «медведей», которые порвут всех на пути к победе…
Только сделать это совсем не просто, ведь у его игроков совсем другие интересы — учеба, друзья и, конечно, девушки. Да и менеджмент клуба не особо рад приходу слишком активного тренера…



Продолжительность: 00:46:46
Формат: avi
Видео: XviD, 720x400, 1500 kbps
Аудио: русский, оригинал, MP3 2.0, 128 kbps

Код:

General
Complete name                    : J:\Video\Molodezhka\Molodezhka 01.avi
Format                           : AVI
Format/Info                      : Audio Video Interleave
File size                        : 548 MiB
Duration                         : 46mn 46s
Overall bit rate                 : 1 639 Kbps
Writing library                  : VirtualDub build 32706/release

Video
ID                               : 0
Format                           : MPEG-4 Visual
Format profile                   : Streaming Video@L1
Format settings, BVOP            : Yes
Format settings, QPel            : No
Format settings, GMC             : No warppoints
Format settings, Matrix          : Default (MPEG)
Codec ID                         : XVID
Codec ID/Hint                    : XviD
Duration                         : 46mn 46s
Bit rate                         : 1 501 Kbps
Width                            : 720 pixels
Height                           : 400 pixels
Display aspect ratio             : 16/9
Frame rate                       : 25.000 fps
Resolution                       : 24 bits
Colorimetry                      : 4:2:0
Scan type                        : Progressive
Bits/(Pixel*Frame)               : 0.208
Stream size                      : 502 MiB (92%)
Writing library                  : XviD 1.2.1 (UTC 2008-12-04)

Audio
ID                               : 1
Format                           : MPEG Audio
Format version                   : Version 1
Format profile                   : Layer 3
Codec ID                         : 55
Codec ID/Hint                    : MP3
Duration                         : 46mn 46s
Bit rate mode                    : Constant
Bit rate                         : 128 Kbps
Channel(s)                       : 2 channels
Sampling rate                    : 48.0 KHz
Resolution                       : 16 bits
Stream size                      : 42.8 MiB (8%)
Alignment                        : Split accross interleaves
Interleave, duration             : 40 ms (1.00 video frame)
Interleave, preload duration     : 500 ms

pic pic pic pic pic pic pic pic pic

Для увеличения картинки щелкните мышкой по превью

Этот торрент недоступен для скачивания без регистрации, однако доступен по публичной magnet-ссылке (источники с публичных трекеров). Перед использованием ссылки прочтите, пожалуйста Пользовательское соглашение, а также как можно дольше оставайтесь на раздаче! Для того, чтобы скачать сам торрент-файл (который видит больше источников), а также для того, чтобы поблагодарить релизера, вам необходимо зарегистрироваться. Если регистрироваться лень - вы можете также попробовать скачать релиз по нашим партнерским ссылкам ниже.

[underverse.su].t34167.torrent
Трекер: Зарегистрирован   [ 13.12.2013 20:30 ]  

Статус: проверено (by garry at 13.12.2013 21:26)
Поблагодарили: 8 человек
Тип торрента: публичный - доступные источники с открытых трекеров: 
Размер: 21,23 GB (занимает 4,85 DVDR, для записи нужно 5 болванок DVDR/RW)
 
 
Похожие темы
Форум Тема Автор Торрент Отв. Посл. сооб.
© xUSSR сериалы Молодёжка [01-40] (Сергей Арланов) [2013 г., спорт, драма, SatRip] garry
75 | 28

0 | 1818

11

13.12.2013 12:09



Последний раз редактировалось: UseR (13.12.2013 20:30), всего редактировалось 36 раз(а)

leerooyy 

09-Ноя-2013 20:11

16 серию скачал без проблем. потом начал закачку следующих и как отрезало. дайте скорости плиз. Спасибо огромное! ))

garry Пол:Муж

12-Ноя-2013 22:48

что это за косяк справа на скринах?

UseR Пол:Муж

13-Ноя-2013 17:51

gari писал(а):

что это за косяк справа на скринах?
а фиг его, когда ставил даже не обратил внимания. поменял на новые

Яндекс.Метрика powered by Sphinx


В Н И М А Н И Е
Сайт не распространяет и не хранит электронные версии произведений, а лишь бесплатно и без коммерческой выгоды (не требуя взамен платы,
SMS и т.д.) предоставляет доступ к создаваемому пользователями каталогу ссылок на торрент-файлы, которые содержат только списки хеш-сумм.
Убедительная просьба с жалобами обращаться напрямую к пользователю, разместившему торрент файл.

Вверх