Loading...
Error

Застава Жилина (12 серии из 12) (Василий Пичул ) [2008 г., военный, драма, DVDRip]

Статистика раздачи
Размер:  7,28 GB   |    Зарегистрирован:  3 года 1 месяц   |    Скачан:  9 раз

Полного источника не было: 6 месяцев

Сидов:  0  |  0 KB/s  ]   Личеров:  0  |  0 KB/s  ]

* - сиды/пиры с внешних источников

   
 
Автор Сообщение

vasilich619 Пол:Муж

09-Окт-2013 12:39

Застава Жилина (12 серии из 12)


Год выпуска: 2008
Жанр: военный, драма
Страна: Россия , Беларусь
Режиссер: Василий Пичул
В ролях: Александр Лымарев, Екатерина Маликова, Даниил Спиваковский, Екатерина Вилкова, Иван Стебунов, Анатолий Белый, Мария Звонарева, Иван Мацкевич, Пётр Меркурьев, Виталий Абдулов...
Сюжет фильма:
1941 год. Пытаясь убежать от несчастной любви, Павел Жилин, студент-первокурсник, попадает в погранвойска незадолго перед гитлеровским нашествием. Однако любовь настигает его и там: оставшись в живых после наступления немцев, Жилин делает все возможное, чтобы спасти свою любимую и ее новоиспеченного мужа.



Качество видео: DVDRip

Продолжительность: 12~00:44:10
Формат: avi
Видео: 704x400, 25fps, Xvid, 1 495 Kbps

Аудио: русский, оригинал, 48000Hz, 6ch, Dolby AC3, 448kbps

Код:

General
Complete name                    : E:\Фильмы\Военные\Застава Жилина.DVDRip-antonios\Застава Жилина.01.DVDRip-antonios.avi
Format                           : AVI
Format/Info                      : Audio Video Interleave
File size                        : 617 MiB
Duration                         : 44mn 10s
Overall bit rate                 : 1 952 Kbps
Writing application              : VirtualDubMod 1.5.10.2 (build 2540/release)
Writing library                  : VirtualDubMod build 2540/release

Video
ID                               : 0
Format                           : MPEG-4 Visual
Format profile                   : Streaming Video@L1
Format settings, BVOP            : Yes
Format settings, QPel            : No
Format settings, GMC             : No warppoints
Format settings, Matrix          : Custom
Codec ID                         : XVID
Codec ID/Hint                    : XviD
Duration                         : 44mn 10s
Bit rate                         : 1 495 Kbps
Width                            : 704 pixels
Height                           : 400 pixels
Display aspect ratio             : 16/9
Frame rate                       : 25.000 fps
Resolution                       : 24 bits
Colorimetry                      : 4:2:0
Scan type                        : Progressive
Bits/(Pixel*Frame)               : 0.212
Stream size                      : 472 MiB (77%)
Writing library                  : XviD 1.2.1 (UTC 2008-12-04)

Audio
ID                               : 1
Format                           : AC-3
Format/Info                      : Audio Coding 3
Codec ID                         : 2000
Duration                         : 44mn 9s
Bit rate mode                    : Constant
Bit rate                         : 448 Kbps
Channel(s)                       : 6 channels
Channel positions                : Front: L C R, Surround: L R, LFE
Sampling rate                    : 48.0 KHz
Stream size                      : 142 MiB (23%)
Alignment                        : Split accross interleaves
Interleave, duration             : 40 ms (1.00 video frame)
Interleave, preload duration     : 500 ms

Семпл:
picpicpicpicpicpicpicpic
Для увеличения картинки щелкните мышкой по превью

Этот торрент недоступен для скачивания без регистрации, однако доступен по публичной magnet-ссылке (источники с публичных трекеров). Перед использованием ссылки прочтите, пожалуйста Пользовательское соглашение, а также как можно дольше оставайтесь на раздаче! Для того, чтобы скачать сам торрент-файл (который видит больше источников), а также для того, чтобы поблагодарить релизера, вам необходимо зарегистрироваться. Если регистрироваться лень - вы можете также попробовать скачать релиз по нашим партнерским ссылкам ниже.

[underverse.su].t31718.torrent
Трекер: Зарегистрирован   [ 09.10.2013 12:39 ]  

Статус: проверено (by 90ytr90 at 09.10.2013 16:33)
Поблагодарили: 1 человек
Тип торрента: публичный - доступные источники с открытых трекеров: 
Размер: 7,28 GB (занимает 1,66 DVDR, для записи нужно 2 болванки DVDR/RW)
 
 


Последний раз редактировалось: vasilich619 (09.10.2013 16:11), всего редактировалось 1 раз

Яндекс.Метрика powered by Sphinx


В Н И М А Н И Е
Сайт не распространяет и не хранит электронные версии произведений, а лишь бесплатно и без коммерческой выгоды (не требуя взамен платы,
SMS и т.д.) предоставляет доступ к создаваемому пользователями каталогу ссылок на торрент-файлы, которые содержат только списки хеш-сумм.
Убедительная просьба с жалобами обращаться напрямую к пользователю, разместившему торрент файл.

Вверх