Loading...
Error

Укращение "САТАНЫ" [2000 г., документальный, исторический, TVRip]

Статистика раздачи
Размер:  350 MB   |    Зарегистрирован:  3 года 1 месяц   |    Скачан:  19 раз
Сидов:  1  |  0 KB/s  ]   Личеров:  0  |  0 KB/s  ]

* - сиды/пиры с внешних источников

   
 
Автор Сообщение

матроскин Пол:Муж

09-Окт-2013 11:33

Укращение "САТАНЫ"


Год выпуска: 2000
Жанр: документальный, исторический
Страна: Россия
Режиссер: ЗАО "Народное кино"
Выпущено: канал ТВ-3
Сюжет фильма:
Фильм о системе ракетного вооружения СС-18 "Сатана", созданном в КБ "Южное".
Сатана" - такое название по классификации НАТО получила самая мощная в мире боевая межконтинентальная баллистическая ракета СС-18, созданная в днепропетровском КБ "Южное" генеральным конструктором Владимиром Федоровичем Уткиным. Она составляет главную ударную силу Советских ракетных войск стратегического назначения. При Горбачеве, Ельцине эти комплексы стали планомерно уничтожаться этой властью и продолжают уничтожаться.
Качество видео: TVRip

Продолжительность: 00:26:59
Формат: avi
Видео: xvid, 600x480, 1543 kbps
Аудио: русский, оригинал, MP3 2.0, 256 kbps

Код:

General
Complete name                    : C:\Users\Security\Desktop\Укращение Сатаны.avi
Format                           : AVI
Format/Info                      : Audio Video Interleave
File size                        : 350 MiB
Duration                         : 26mn 59s
Overall bit rate                 : 1 812 Kbps
Writing application              : Lavf52.93.0

Video
Format                           : xvid
Codec ID                         : xvid
Duration                         : 26mn 59s
Bit rate                         : 1 543 Kbps
Width                            : 600 pixels
Height                           : 480 pixels
Display aspect ratio             : 5/4
Frame rate                       : 25.000 fps
Resolution                       : 24 bits
Bits/(Pixel*Frame)               : 0.214
Stream size                      : 298 MiB (85%)

Audio
ID                               : 1
Format                           : MPEG Audio
Format version                   : Version 1
Format profile                   : Layer 3
Codec ID                         : 55
Codec ID/Hint                    : MP3
Duration                         : 26mn 59s
Bit rate mode                    : Constant
Bit rate                         : 256 Kbps
Channel(s)                       : 2 channels
Sampling rate                    : 44.1 KHz
Resolution                       : 16 bits
Stream size                      : 49.4 MiB (14%)
Alignment                        : Aligned on interleaves
Interleave, duration             : 26 ms (0.65 video frame)
Writing library                  : LAME3.98.4

picpicpicpicpicpic
Для увеличения картинки щелкните мышкой по превью

Этот торрент недоступен для скачивания без регистрации, однако доступен по публичной magnet-ссылке (источники с публичных трекеров). Перед использованием ссылки прочтите, пожалуйста Пользовательское соглашение, а также как можно дольше оставайтесь на раздаче! Для того, чтобы скачать сам торрент-файл (который видит больше источников), а также для того, чтобы поблагодарить релизера, вам необходимо зарегистрироваться. Если регистрироваться лень - вы можете также попробовать скачать релиз по нашим партнерским ссылкам ниже.

[underverse.su].t31715.torrent
Трекер: Зарегистрирован   [ 09.10.2013 11:33 ]  

Статус: проверено (by матроскин at 09.10.2013 11:34)
Поблагодарили: пока никто не поблагодарил...
Тип торрента: публичный - доступные источники с открытых трекеров: 
Размер: 350 MB (занимает 0,08 DVDR, для записи нужно 1 болванка DVDR/RW)
 
 

матроскин Пол:Муж

09-Окт-2013 11:37




Яндекс.Метрика powered by Sphinx


В Н И М А Н И Е
Сайт не распространяет и не хранит электронные версии произведений, а лишь бесплатно и без коммерческой выгоды (не требуя взамен платы,
SMS и т.д.) предоставляет доступ к создаваемому пользователями каталогу ссылок на торрент-файлы, которые содержат только списки хеш-сумм.
Убедительная просьба с жалобами обращаться напрямую к пользователю, разместившему торрент файл.

Вверх