Loading...
Error

Мальчишник: Часть III / The Hangover Part III (Тодд Филлипс ) [2013 г., комедия, BDRip] Dub (Rus,Ukr) + AVO (Гоблин) + Original + Sub (Rus,Ukr,Eng) HQ Underverse

Статистика раздачи
Размер:  2,17 GB   |    Зарегистрирован:  3 года 2 месяца   |    Скачан:  62 раза
Сидов:  1  |  0 KB/s  ]   Личеров:  0  |  0 KB/s  ]

* - сиды/пиры с внешних источников

   
 
Автор Сообщение

HQ Underverse 

09-Окт-2013 07:11

Мальчишник: Часть III / The Hangover Part III


Год выпуска: 2013
Жанр: комедия
Страна: США
Режиссер: Тодд Филлипс
В ролях: Брэдли Купер, Эд Хелмс, Зак Галифианакис, Кен Жонг, Хэзер Грэм, Джеффри Тэмбор, Джастин Барта, Джон Гудман, Мелисса МакКарти, Майк Эппс
Сюжет фильма:
В этот раз никакой свадьбы. Никакого мальчишника. Казалось бы, что могло пойти не так? Но когда Волчья стая оказывается на дороге, все ставки снимаются.

  • Мировая премьера: 20 мая 2013
  • Российская премьера: 30 мая 2013, «Каро-Премьер»

/
Качество видео: BDRip

Продолжительность: 01:40:08
Формат: avi
Видео: XviD, 720x304, 2190 kbps
Аудио #1: русский, дублированный [лицензия], AC3 5.1, 448 kbps
Аудио #2: английский, оригинал, AC3 5.1, 448 kbps
Аудио #3: русский, одноголосый закадровый [Гоблин], AC3 5.1, 448 kbps (отдельным файлом: здесь)
Аудио #4: украинский, дублированный, AC3 5.1, 448 kbps (отдельным файлом: здесь)
Субтитры #1: внешние, SRT, украинский
Субтитры #2: внешние, SRT, английский
Субтитры #3: внешние, SRT, русский

Код:

General
Complete name                    : Z:\windoza-share\Мальчишник 3\The.Hangover.Part.III.2013.BDRip.XviD.AC3.Rus.D.Eng.O.HQ.Underverse.avi
Format                           : AVI
Format/Info                      : Audio Video Interleave
Format profile                   : OpenDML
File size                        : 2.17 GiB
Duration                         : 1h 40mn
Overall bit rate                 : 3 104 Kbps
Writing application              : VirtualDubMod 1.5.10.2 (build 2540/release)
Writing library                  : VirtualDubMod build 2540/release

Video
ID                               : 0
Format                           : MPEG-4 Visual
Format profile                   : Streaming Video@L1
Format settings, BVOP            : Yes
Format settings, QPel            : No
Format settings, GMC             : No warppoints
Format settings, Matrix          : Custom
Muxing mode                      : Packed bitstream
Codec ID                         : XVID
Codec ID/Hint                    : XviD
Duration                         : 1h 40mn
Bit rate                         : 2 190 Kbps
Width                            : 720 pixels
Height                           : 304 pixels
Display aspect ratio             : 2.35
Frame rate                       : 23.976 fps
Resolution                       : 24 bits
Colorimetry                      : 4:2:0
Scan type                        : Progressive
Bits/(Pixel*Frame)               : 0.417
Stream size                      : 1.53 GiB (71%)
Writing library                  : XviD 64

Audio #1
ID                               : 1
Format                           : AC-3
Format/Info                      : Audio Coding 3
Codec ID                         : 2000
Duration                         : 1h 40mn
Bit rate mode                    : Constant
Bit rate                         : 448 Kbps
Channel(s)                       : 6 channels
Channel positions                : Front: L C R, Surround: L R, LFE
Sampling rate                    : 48.0 KHz
Stream size                      : 321 MiB (14%)
Alignment                        : Split accross interleaves
Interleave, duration             : 42 ms (1.00 video frame)
Interleave, preload duration     : 500 ms

Audio #2
ID                               : 2
Format                           : AC-3
Format/Info                      : Audio Coding 3
Codec ID                         : 2000
Duration                         : 1h 40mn
Bit rate mode                    : Constant
Bit rate                         : 448 Kbps
Channel(s)                       : 6 channels
Channel positions                : Front: L C R, Surround: L R, LFE
Sampling rate                    : 48.0 KHz
Stream size                      : 321 MiB (14%)
Alignment                        : Split accross interleaves
Interleave, duration             : 42 ms (1.00 video frame)
Interleave, preload duration     : 500 ms

General
Complete name                    : Z:\windoza-share\Мальчишник 3\The.Hangover.Part.III.2013.BDRip.XviD.AC3.Rus.D.Eng.O.HQ.Underverse.UKR.ac3
Format                           : AC-3
Format/Info                      : Audio Coding 3
File size                        : 321 MiB
Duration                         : 1h 40mn
Overall bit rate                 : 448 Kbps

Audio
Format                           : AC-3
Format/Info                      : Audio Coding 3
Duration                         : 1h 40mn
Bit rate mode                    : Constant
Bit rate                         : 448 Kbps
Channel(s)                       : 6 channels
Channel positions                : Front: L C R, Surround: L R, LFE
Sampling rate                    : 48.0 KHz
Stream size                      : 321 MiB (100%)

General
Complete name                    : Z:\windoza-share\Мальчишник 3\The.Hangover.Part.III.2013.BDRip.XviD.AC3.Rus.D.Eng.O.HQ.Underverse.RUS.GOBLIN.ac3
Format                           : AC-3
Format/Info                      : Audio Coding 3
File size                        : 321 MiB
Duration                         : 1h 40mn
Overall bit rate                 : 448 Kbps

Audio
Format                           : AC-3
Format/Info                      : Audio Coding 3
Duration                         : 1h 40mn
Bit rate mode                    : Constant
Bit rate                         : 448 Kbps
Channel(s)                       : 6 channels
Channel positions                : Front: L C R, Surround: L R, LFE
Sampling rate                    : 48.0 KHz
Stream size                      : 321 MiB (100%)

Релиз группы:

picpicpic
Для увеличения картинки щелкните мышкой по превью

Этот торрент недоступен для скачивания без регистрации, однако доступен по публичной magnet-ссылке (источники с публичных трекеров). Перед использованием ссылки прочтите, пожалуйста Пользовательское соглашение, а также как можно дольше оставайтесь на раздаче! Для того, чтобы скачать сам торрент-файл (который видит больше источников), а также для того, чтобы поблагодарить релизера, вам необходимо зарегистрироваться. Если регистрироваться лень - вы можете также попробовать скачать релиз по нашим партнерским ссылкам ниже.

[underverse.su].t31706.torrent
Трекер: Зарегистрирован   [ 09.10.2013 07:11 ]  

Статус: проверено (by HQ Underverse at 09.10.2013 07:12)
Поблагодарили: 3 человека
Тип торрента: публичный - доступные источники с открытых трекеров: 
Размер: 2,17 GB (занимает 1/2 DVDR, для записи нужно 1 болванка DVDR/RW)
 
 
Похожие темы
Форум Тема Автор Торрент Отв. Посл. сооб.
Зарубежное кино [DVDRip, Low-Res HDRip, и т.д.] Мальчишник в Вегасе / The Hangover / 2009 / DVDRip ( Тодд Филлипс) [2009 г., комедия, DVDRip] niif111
0 | 0

4 | 1295

40

28.01.2010 19:23

Зарубежное кино [DVDRip, Low-Res HDRip, и т.д.] Мальчишник в Вегасе (Расширенная версия) / The Hangover (Unrated) (Тодд Филлипс / Todd Phillips) [2009 г., комедия, BDRip] GUree
0 | 0

1 | 1802

6

03.04.2010 08:41

Зарубежное кино [DVDRip, Low-Res HDRip, и т.д.] Мальчишник в Новом Орлеане / Mardi Gras: Spring Break (Фил Дорнфелд) [2011 г., комедия, DVDRip] RG NewCinema
0 | 0

1 | 545

7

26.10.2011 15:25

Зарубежное кино [DVDRip, Low-Res HDRip, и т.д.] Мальчишник 2: Из Вегаса в Бангкок / The Hangover Part II (Тодд Филлипс) [2011 г., комедия, DVDRip] RG NewCinema
0 | 0

0 | 784

44

30.10.2011 10:36

Зарубежное кино [DVDRip, Low-Res HDRip, и т.д.] Мальчишник в Новом Орлеане / Mardi Gras: Spring Break (Фил Дорнфелд) [2011, комедия, HDRip] MVO Garnett
2 | 0

1 | 1148

5

13.01.2013 08:26

Зарубежное кино [DVDRip, Low-Res HDRip, и т.д.] Мальчишник в Новом Орлеане / Mardi Gras: Spring Break (Фил Дорнфелд) [2011, комедия, HDRip-AVC] MVO Garnett
8 | 1

0 | 520

1

05.01.2013 18:58

T Зарубежное кино [DVDRip, Low-Res HDRip, и т.д.] Мальчишник: Часть III / The Hangover Part III (Тодд Филлипс) [2013 г., комедия, DVDRip] AVO (Гоблин) (звук с CAMRip) 90ytr90
7 | 0

0 | 510

13

14.09.2013 04:12

Зарубежное кино [DVDRip, Low-Res HDRip, и т.д.] Мальчишник: Часть III / The Hangover Part III (Тодд Филлипс) [2013 г., комедия, BDRip-AVC] Dub (iTunes Russia) + Original + Ukr + Subs 90ytr90
0 | 0

0 | 1272

43

21.09.2013 10:09

Зарубежное кино [DVDRip, Low-Res HDRip, и т.д.] Мальчишник: Часть III / The Hangover Part III (Тодд Филлипс) [2013 г., комедия, HDRip] Dub (iTunes Russia) 90ytr90
18 | 1

0 | 688

75

21.09.2013 12:56

Зарубежное кино [DVDRip, Low-Res HDRip, и т.д.] Мальчишник: Часть III / The Hangover Part III (Тодд Филлипс / Todd Phillips) [2013 г., комедия, BDRip] Dub Чертёнок
57 | 0

0 | 1459

35

24.09.2013 10:36


Яндекс.Метрика powered by Sphinx


В Н И М А Н И Е
Сайт не распространяет и не хранит электронные версии произведений, а лишь бесплатно и без коммерческой выгоды (не требуя взамен платы,
SMS и т.д.) предоставляет доступ к создаваемому пользователями каталогу ссылок на торрент-файлы, которые содержат только списки хеш-сумм.
Убедительная просьба с жалобами обращаться напрямую к пользователю, разместившему торрент файл.

Вверх