Loading...
Error

Карпов / Сезон 2 / Серия 1-30 (30) (Иван Щёголев, Сергей Лесогоров) [2013 г., детектив, криминальный, драма, SatRip]

Статистика раздачи
Размер:  16,52 GB   |    Зарегистрирован:  3 года 1 месяц   |    Скачан:  24 раза
Сидов:  1  |  8 KB/s  ]   Личеров:  0  |  0 KB/s  ]

* - сиды/пиры с внешних источников

   
 
Автор Сообщение

nemos Пол:Муж

07-Окт-2013 13:34

Карпов. Сезон второй


Год выпуска: 2013
Жанр: детектив, криминальный, драма
Страна: Россия
Режиссер: Иван Щёголев, Сергей Лесогоров
В ролях: Владислав Котлярский, Степан Рожнов, Николай Козак, Анна Михайловская, Максим Щёголев, Юлия Майборода, Андрей Сорока, Виктория Тарасова, Дмитрий Мазуров, Тимур Ефременков, Дмитрий Блажко, Денис Рожков, Ева Авеева, Мария Болонкина, Владимир Фекленко, Владимир Яковлев, Мария Рассказова, Татьяна Исаева, Анатолий Петров, Екатерина Маликова, Наталья Гудкова, Мария Болтнева, Александр Бобров, Александр Касаткин, Ольга Шеховцова, Валерий Новиков, Александр Павленко, Олег Евтеев, Екатерина Шмакова, Анастасия Маринина
Сюжет фильма:
Во второй части сериала бывшему полковнику Карпову предстоит пережить тяжелую потерю. Это событие определит ход событий всего сезона. Чтобы докопаться до истины, бывший начальник криминальной полиции «Пятницкого» устроится на работу к политику, претендующему на пост мэра подмосковного города. Карпов окунется в жестокий мир предвыборной гонки, полный дрязг, интриг, а главное – тайн. И чем больше он будет узнавать, тем больше будет понимать, что правда от него все дальше. Под влиянием обстоятельств герои сериала сильно изменятся. Так робкая Света станет жесткой бизнес-леди, Иващук, наоборот, «покатится вниз», а Зотов проявит себя с неожиданной стороны. Но самое главное во втором сезоне «Карпова» зрителям предстоит встреча с легендарными героями «Глухаря»: бесшабашным Денисом Антошиным, принципиальным Колей Тарасовым, наивным, но добрым Агаповым, а также строгой, но справедливой Ириной Зиминой. Вторая часть сериала докажет Карпову простую истину – очевидное, не значит настоящее. Десятки раз бывший полковник будет идти по ложному пути, пока, наконец, не придет к разгадке своей личной трагедии. И развязка сезона, несомненно, шокирует каждого.


Качество видео: SatRip

Продолжительность: 00:44:10 серия
Формат: AVI
Видео: XviD, 720x448, 1 644 kbps
Аудио: русский, MP3 2.0, 128 kbps
Семпл: http://multi-up.com/910717

Код:

D:\Фильмы (роздача)\Karpov.Vtoroy.Sezon.2013.XviD.SATRip.ANDROZZZ\Karpov.Vtoroy.Sezon.(30.serija).2013.XviD.SATRip.ANDROZZZ.avi
   General
      Complete name : D:\Фильмы (роздача)\Karpov.Vtoroy.Sezon.2013.XviD.SATRip.ANDROZZZ\Karpov.Vtoroy.Sezon.(30.serija).2013.XviD.SATRip.ANDROZZZ.avi
      Format : AVI
      Format/Info : Audio Video Interleave
      File size : 563 MiB
      Duration : 44mn 10s
      Overall bit rate : 1 781 Kbps
      Writing library : VirtualDub build 34807/release
   Video #0
      ID : 0
      Format : MPEG-4 Visual
      Format profile : Advanced Simple@L5
      Format settings, BVOP : 2
      Format settings, QPel : No
      Format settings, GMC : No warppoints
      Format settings, Matrix : Default (H.263)
      Muxing mode : Packed bitstream
      Codec ID : XVID
      Codec ID/Hint : XviD
      Duration : 44mn 10s
      Bit rate : 1 644 Kbps
      Width : 720 pixels
      Height : 448 pixels
      Display aspect ratio : 1.607
      Frame rate : 25.000 fps
      Color space : YUV
      Chroma subsampling : 4:2:0
      Bit depth : 8 bits
      Scan type : Progressive
      Compression mode : Lossy
      Bits/(Pixel*Frame) : 0.204
      Stream size : 519 MiB (92%)
      Writing library : XviD 64
   Audio #1
      ID : 1
      Format : MPEG Audio
      Format version : Version 1
      Format profile : Layer 3
      Mode : Joint stereo
      Mode extension : MS Stereo
      Codec ID : 55
      Codec ID/Hint : MP3
      Duration : 44mn 10s
      Bit rate mode : Constant
      Bit rate : 128 Kbps
      Channel(s) : 2 channels
      Sampling rate : 48.0 KHz
      Compression mode : Lossy
      Stream size : 40.4 MiB (7%)
      Alignment : Split accross interleaves
      Interleave, duration : 40 ms (1.00 video frame)
      Interleave, preload duration : 500 ms
picpicpicpicpicpicpicpicpicpicpicpicpic
Для увеличения картинки щелкните мышкой по превью

Этот торрент недоступен для скачивания без регистрации, однако доступен по публичной magnet-ссылке (источники с публичных трекеров). Перед использованием ссылки прочтите, пожалуйста Пользовательское соглашение, а также как можно дольше оставайтесь на раздаче! Для того, чтобы скачать сам торрент-файл (который видит больше источников), а также для того, чтобы поблагодарить релизера, вам необходимо зарегистрироваться. Если регистрироваться лень - вы можете также попробовать скачать релиз по нашим партнерским ссылкам ниже.

[underverse.su].t32540.torrent
Трекер: Зарегистрирован   [ 31.10.2013 15:48 ]  

Статус: проверено (by garry at 31.10.2013 19:53)
Поблагодарили: 10 человек
Тип торрента: публичный - доступные источники с открытых трекеров: 
Размер: 16,52 GB (занимает 3,77 DVDR, для записи нужно 4 болванки DVDR/RW)
 
 
Похожие темы
Форум Тема Автор Торрент Отв. Посл. сооб.
xUSSR сериалы Карпов / Сезон: 1 Серии: 1 - 32 из 32 (Игорь Ромащенко, Иван Щёголев) [2012, криминал, SATRip] 90ytr90
0 | 0

0 | 1632

17

25.09.2012 17:13

xUSSR сериалы Карпов / Серии: 1-32 (32)(Игорь Ромащенко, Иван Щёголев) [2012 г., Детектив, Криминал, SATRip] nemos
0 | 1

13 | 1516

3

12.10.2012 14:53

xUSSR сериалы Карпов / Серии 1-32 (32) (Игорь Ромащенко, Иван Щёголев, Гюзель Киреева) [2012 г., Детектив, криминал, драма, DVDRip] Чертёнок
2 | 4

0 | 858

14

16.05.2013 12:58

xUSSR сериалы Карпов / Сезон 3 / Серия 1-32 (из 32) (Иван Щёголев, Сергей Лесогоров) [2014 г., криминальный, детектив, драма, WEB-DLRip] nemos
4 | 0

1 | 1798

11

07.10.2014 21:17

xUSSR сериалы Карпов / Сезон 3 / Серия 1-32 (из 32)( Иван Щёголев, Владислав Николаев) [2014 г., криминальный, детектив, драма, SatRip] nemos
0 | 0

1 | 2212

13

07.10.2014 21:18



Последний раз редактировалось: nemos (06.11.2014 09:40), всего редактировалось 29 раз(а)

xtm59 

08-Окт-2013 08:22

Спасибо!!! :)

nemos Пол:Муж

08-Окт-2013 14:34

Торрент обновлён! Добавлены серии:5-6

xtm59 

10-Окт-2013 07:46

Спасибо! :)

nemos Пол:Муж

10-Окт-2013 15:07

Торрент обновлён! Добавлены серии:29-30

Яндекс.Метрика powered by Sphinx


В Н И М А Н И Е
Сайт не распространяет и не хранит электронные версии произведений, а лишь бесплатно и без коммерческой выгоды (не требуя взамен платы,
SMS и т.д.) предоставляет доступ к создаваемому пользователями каталогу ссылок на торрент-файлы, которые содержат только списки хеш-сумм.
Убедительная просьба с жалобами обращаться напрямую к пользователю, разместившему торрент файл.

Вверх