Loading...
Error

Охотники за караванами (Сергей Чекалов) (01- 4серии из 4) [2010 г., драма, военный , DVDRip]

Статистика раздачи
Размер:  2,79 GB   |    Зарегистрирован:  3 года 1 месяц   |    Скачан:  10 раз

Полного источника не было: 1 месяц 20 дней

Сидов:  0  |  0 KB/s  ]   Личеров:  0  |  0 KB/s  ]

* - сиды/пиры с внешних источников

   
 
Автор Сообщение

vasilich619 Пол:Муж

06-Окт-2013 06:28

Охотники за караванами


Год выпуска: 2010
Жанр: драма, военный
Страна: Россия
Режиссер: Сергей Чекалов
В ролях: Алексей Серебряков, Андрей Саминин, Алексей Лонгин, Всеволод Хованский-Померанцев, Карина Андоленко, Евгения Лютая, Владимир Смирнов, Михаил Тарабукин, Иван Шибанов, Никита Емшанов.
Сюжет фильма:
Афганистан 1987 год. Появившееся у моджахедов переносные зенитные комплексы «Стингер» грозят положить конец безраздельному государству в воздухе советской авиации.
В Москве разрабатывается секретная операция по захвату образца этого нового оружия. Непосредственно на место для руководства операцией прибывает офицер ГРУ ГШ.
Командир разведбата майор Оковалков получает задание добыть образец этого нового оружия. Для этого ему необходимо захватить небольшой караван, который согласно полученным разведданным будет перевозить 1 или 2 «Стингера» и не будет иметь значительной охраны.


Продолжительность: 4~00:48:29
Формат: avi
Видео: XviD, 720x400, 1875 kbps
Аудио: русский, оригинал, AC3 2.0, 192 kbps

Код:

General
Complete name                    : E:\Фильмы\Военные\Охотники за караванами  (01- 4серии) 2010\Ohotniki.za.karavanami.(1.serija.iz.4).2010.XviD.DVDRip.avi
Format                           : AVI
Format/Info                      : Audio Video Interleave
File size                        : 721 MiB
Duration                         : 48mn 29s
Overall bit rate                 : 2 079 Kbps

Video
ID                               : 0
Format                           : MPEG-4 Visual
Format profile                   : Simple@L3
Format settings, BVOP            : No
Format settings, QPel            : No
Format settings, GMC             : No warppoints
Format settings, Matrix          : Default (H.263)
Codec ID                         : XVID
Codec ID/Hint                    : XviD
Duration                         : 48mn 29s
Bit rate                         : 1 876 Kbps
Width                            : 720 pixels
Height                           : 400 pixels
Display aspect ratio             : 16/9
Frame rate                       : 25.000 fps
Resolution                       : 24 bits
Colorimetry                      : 4:2:0
Scan type                        : Progressive
Bits/(Pixel*Frame)               : 0.261
Stream size                      : 651 MiB (90%)
Writing library                  : XviD 1.1.2 (UTC 2006-11-01)

Audio
ID                               : 1
Format                           : AC-3
Format/Info                      : Audio Coding 3
Codec ID                         : 2000
Duration                         : 48mn 29s
Bit rate mode                    : Constant
Bit rate                         : 192 Kbps
Channel(s)                       : 2 channels
Channel positions                : L R
Sampling rate                    : 48.0 KHz
Stream size                      : 66.6 MiB (9%)
Alignment                        : Aligned on interleaves
Interleave, duration             : 32 ms (0.80 video frame)

Семпл: http://multi-up.com/910169
picpicpicpicpicpicpicpicpic
Для увеличения картинки щелкните мышкой по превью

Этот торрент недоступен для скачивания без регистрации, однако доступен по публичной magnet-ссылке (источники с публичных трекеров). Перед использованием ссылки прочтите, пожалуйста Пользовательское соглашение, а также как можно дольше оставайтесь на раздаче! Для того, чтобы скачать сам торрент-файл (который видит больше источников), а также для того, чтобы поблагодарить релизера, вам необходимо зарегистрироваться. Если регистрироваться лень - вы можете также попробовать скачать релиз по нашим партнерским ссылкам ниже.

[underverse.su].t31616.torrent
Трекер: Зарегистрирован   [ 06.10.2013 06:28 ]  

Статус: проверено (by Чертёнок at 06.10.2013 11:26)
Поблагодарили: 1 человек
Тип торрента: публичный - доступные источники с открытых трекеров: 
Размер: 2,79 GB (занимает 0,64 DVDR, для записи нужно 1 болванка DVDR/RW)
 
 
Похожие темы
Форум Тема Автор Торрент Отв. Посл. сооб.
Зарубежное кино [DVDRip, Low-Res HDRip, и т.д.] Охотники за привидениями / Ghostbusters (Пол Фиг / Paul Feig) [2016 г., фантастика, фэнтези, комедия, BDRip] [IMAX] [Extended Cut] Dub 90ytr90
121 | 9

0 | 309

2

22.11.2016 20:42

Зарубежное кино [DVDRip, Low-Res HDRip, и т.д.] Охотники за головами / Hodejegerne (Мортен Тильдум) [2011 г., боевик, триллер, криминал, HDRip-AVC] TARAKAN
0 | 1

0 | 589

3

04.02.2012 13:19

Зарубежное кино [DVDRip, Low-Res HDRip, и т.д.] Охотники за головами / Hodejegerne / Headhunters (Мортен Тильдум) [2011 г., боевик, триллер, криминал, BDRip-AVC] Dub + Original (Nor) + Sub (Rus, Eng, Nor) 90ytr90
16 | 0

0 | 307

4

16.11.2016 18:33

Зарубежное кино [DVDRip, Low-Res HDRip, и т.д.] Охотники за головами / Hodejegerne / Headhunters (Мортен Тильдум) [2011 г., боевик, триллер, криминал, BDRip] Dub 90ytr90
0 | 0

0 | 1209

12

16.01.2013 14:35

Зарубежное кино [DVDRip, Low-Res HDRip, и т.д.] Охотники за головами / Hodejegerne / Headhunters (Мортен Тильдум) [2011 г., боевик, триллер, криминал, HDRip] Dub 90ytr90
0 | 0

0 | 518

9

16.01.2013 16:27

Зарубежное кино [DVDRip, Low-Res HDRip, и т.д.] Охотники за привидениями / Ghostbusters (Пол Фиг / Paul Feig) [2016 г., фантастика, фэнтези, комедия, BDRip-AVC] [Extended Cut] Dub + Original (Eng) + Sub (Rus, Eng) 90ytr90
81 | 5

0 | 164

5

05.11.2016 07:09

Зарубежное кино [DVDRip, Low-Res HDRip, и т.д.] Охотники за привидениями / Ghostbusters (Пол Фиг / Paul Feig) [2016 г., фантастика, фэнтези, комедия, BDRip] [Extended Cut] Dub 90ytr90
136 | 12

0 | 294

4

02.11.2016 20:21

Зарубежное кино [DVDRip, Low-Res HDRip, и т.д.] Охотники за привидениями / Ghostbusters (Пол Фиг / Paul Feig) [2016 г., фантастика, фэнтези, комедия, HDRip] [Theatrical Cut] Dub + hardsub (Rus) 90ytr90
43 | 4

0 | 264

1

02.11.2016 19:10

Зарубежное кино [DVDRip, Low-Res HDRip, и т.д.] Охотники за привидениями / Ghostbusters (Пол Фиг / Paul Feig) [2016 г., фантастика, фэнтези, комедия, HDRip] [Extended Cut] Dub + Sub (Rus) 90ytr90
277 | 13

0 | 297

10

02.11.2016 19:20

T Зарубежное кино [DVDRip, Low-Res HDRip, и т.д.] Охотники за духами / Ghost Team One (Бен Пейсер, Скотт Рутерфорд) [2013 г., ужасы, комедия, HDRip] Dub (iTunes) 90ytr90
1 | 0

0 | 1243

21

01.04.2014 14:19


Яндекс.Метрика powered by Sphinx


В Н И М А Н И Е
Сайт не распространяет и не хранит электронные версии произведений, а лишь бесплатно и без коммерческой выгоды (не требуя взамен платы,
SMS и т.д.) предоставляет доступ к создаваемому пользователями каталогу ссылок на торрент-файлы, которые содержат только списки хеш-сумм.
Убедительная просьба с жалобами обращаться напрямую к пользователю, разместившему торрент файл.

Вверх