Loading...
Error

1993-"Осень" [2013 г., документальный, исторический, HDTVRip]

Статистика раздачи
Размер:  875 MB   |    Зарегистрирован:  3 года 2 месяца   |    Скачан:  29 раз
Сидов:  1  |  0 KB/s  ]   Личеров:  0  |  0 KB/s  ]

* - сиды/пиры с внешних источников

   
 
Автор Сообщение

матроскин Пол:Муж

03-Окт-2013 18:30

1993-"Осень"


Год выпуска: 2013
Жанр: документальный, исторический
Страна: Россия
Выпущено: КПРФ ТВ
Сюжет фильма:
Уникальные кадры видеохроники тех событий, неизвестные документы, интервью политиков и общественных деятелей, защитников Дома Советов, современное прозрение-покаяние лиц, причастных к государственному перевороту 21 сентября - 4 октября 1993 года составляют основу фильма "1993. Осень".
Фильм обращен к нынешнему поколению двадцатилетних, открывает для них неизвестную для многих и трагическую страницу современной истории России. И наряду с осмыслением тайных и явных пружин, приведших к кровопролитию в центре Москвы осенью 1993 года, позволяет по новому взглянуть на современные проблемы в России времен Путина и торжества олигархических кланов и транснационального капитала. В эти кровавые дни осени 1993 года в центре Москвы был фашизм, убивали людей, насиловали, издевались как могли. Ельцинская банда под руководством запада заметала преступные следы, убитых пачками грузили в машины и сжигали трупы защитников Дома Советов.
Качество видео: HDTVRip

Продолжительность: 00:53:52
Формат: avi
Видео: xvid, 854x480, 2003 kbps
Аудио: русский, оригинал, MP3 2.0, 256 kbps

Код:

General
Complete name                    : C:\Users\Security\Desktop\Новая папка\Фильм -1993. Осень. (КПРФ ТВ).avi
Format                           : AVI
Format/Info                      : Audio Video Interleave
File size                        : 875 MiB
Duration                         : 53mn 52s
Overall bit rate                 : 2 272 Kbps
Writing application              : Lavf52.93.0

Video
Format                           : xvid
Codec ID                         : xvid
Duration                         : 53mn 52s
Bit rate                         : 2 003 Kbps
Width                            : 854 pixels
Height                           : 480 pixels
Display aspect ratio             : 16/9
Frame rate                       : 25.000 fps
Resolution                       : 24 bits
Bits/(Pixel*Frame)               : 0.195
Stream size                      : 772 MiB (88%)

Audio
ID                               : 1
Format                           : MPEG Audio
Format version                   : Version 1
Format profile                   : Layer 3
Codec ID                         : 55
Codec ID/Hint                    : MP3
Duration                         : 53mn 52s
Bit rate mode                    : Constant
Bit rate                         : 256 Kbps
Channel(s)                       : 2 channels
Sampling rate                    : 44.1 KHz
Resolution                       : 16 bits
Stream size                      : 98.7 MiB (11%)
Alignment                        : Aligned on interleaves
Interleave, duration             : 26 ms (0.65 video frame)
Writing library                  : LAME3.98.4

picpicpicpicpicpic
Для увеличения картинки щелкните мышкой по превью

Этот торрент недоступен для скачивания без регистрации, однако доступен по публичной magnet-ссылке (источники с публичных трекеров). Перед использованием ссылки прочтите, пожалуйста Пользовательское соглашение, а также как можно дольше оставайтесь на раздаче! Для того, чтобы скачать сам торрент-файл (который видит больше источников), а также для того, чтобы поблагодарить релизера, вам необходимо зарегистрироваться. Если регистрироваться лень - вы можете также попробовать скачать релиз по нашим партнерским ссылкам ниже.

[underverse.su].t31559.torrent
Трекер: Зарегистрирован   [ 03.10.2013 18:30 ]  

Статус: проверено (by матроскин at 03.10.2013 18:32)
Поблагодарили: 3 человека
Тип торрента: публичный - доступные источники с открытых трекеров: 
Размер: 875 MB (занимает 0,2 DVDR, для записи нужно 1 болванка DVDR/RW)
 
 

матроскин Пол:Муж

03-Окт-2013 18:46

матроскин Пол:Муж

03-Окт-2013 19:26

Александр Озерский, публицист
2013-10-01 10:54

На экране событие сменяет событие, мелькают лица участников и документальные свидетельства невиданной, немыслимой политической трагедии – и возникает цельная картина исторической драмы, которую пережила – и продолжает переживать – наша несчастная Россия. Создатели фильма совершили подвиг, по крупицам собрав факты времени, которые в пылу политической борьбы, под огнем пулеметов и снайперов никто специально не фиксировал. Мы видим героических защитников Советской власти – и лица преступников, осмелившихся поднять на нее руку, разрушивших ее. Звучат и голоса молодых россиян, которые говорят, что ничего не видели и не помнят - от нынешнего поколения скрывают факты кровавой драмы. Ибо многие из тех, кто сотворил ее, еще живы и благоденствуют.

Фильм, и в этом его особая ценность, убедительно опровергает домыслы властной пропаганды, утверждающей, что никто не защищал советский строй, что люди с радостью поддержали ельцинский контрреволюционный переворот, что благодаря ему Россия процветает, потрясая своими успехами современный мир. Гнусные измышления сочиняют те же люди, которые при советском строе восхваляли его и клялись в верности ему. Занимавший высший пост в партии и государстве мерзкий перерожденец Горбачев, призывавший строить «больше социализма», теперь заявляет, как и его подельник Яковлев, что «ненавидел коммунизм».

Отступники, толпой устремившиеся при Ельцине и Гайдаре на теплые места, в правления банков и компаний, на руководящие посты в контрреволюционной партии, перерожденцы, грудь которых украшают советские ордена, - это те же мздоимцы французского термидора, которые погубили революцию потому, что не получили от нее того, чего хотели. Теперь они процветают, и несть числа зеленым банкнотам, которые они каждый день пересчитывают, завывая от радости. Они не знают, что эта радость не бесконечна.

Те, кому повезет посмотреть этот фильм - а на экраны кинотеатров и властных телеканалов его, понятно, не допустят, могут гордиться тем, что приобщились к героической истории своей страны. Хочется верить, что это только начало великой саги о мужестве народа, который победит свалившееся на него бедствие. Следовало бы призвать всех, кто помнит о событиях «черного октября», поделиться своими воспоминаниями. Ведь фильм «1993. Осень» - только фрагмент нашей истории, и будут созданы новые фильмы и книги, которые понесут в народ правду о героизме защитников социализма. Укрепят надежды тех, кто стал жертвой пещерного капитализма, что правда истории восторжествует. Умножит их силы в справедливой борьбе.

Еще раз – спасибо создателям фильма.

Паукан Пол:Муж

04-Окт-2013 09:01

матроскин писал(а):

Выпущено: КПРФ ТВ
r
Кто не очень похоже на независимую точку зрения %)
Впрочем, нынешняя власть себя уже показала, особенно за последние пару лет.

Яндекс.Метрика powered by Sphinx


В Н И М А Н И Е
Сайт не распространяет и не хранит электронные версии произведений, а лишь бесплатно и без коммерческой выгоды (не требуя взамен платы,
SMS и т.д.) предоставляет доступ к создаваемому пользователями каталогу ссылок на торрент-файлы, которые содержат только списки хеш-сумм.
Убедительная просьба с жалобами обращаться напрямую к пользователю, разместившему торрент файл.

Вверх