Loading...
Error

Роммель / Rommel (Николаус Штайн Фон Каменский) [2012 г., боевик, драма, военный, биография, история, HDRip] AVO (Ю.Сербин)

Статистика раздачи
Размер:  1,46 GB   |    Зарегистрирован:  3 года 2 месяца   |    Скачан:  11 раз

Полного источника не было: 8 месяцев

Сидов:  0  |  0 KB/s  ]   Личеров:  0  |  0 KB/s  ]

* - сиды/пиры с внешних источников

   
 
Автор Сообщение

nemos Пол:Муж

02-Окт-2013 16:13

Роммель / Rommel


Год выпуска: 2012
Жанр: боевик, драма, военный, биография, история
Страна: Германия , Франция , Австрия
Режиссер: Николаус Штайн Фон Каменский
В ролях: Ульрих Тукур, Тим Бергманн, Рольф Канис, Артур Клемт, Томас Лимпинзель, Патрик Мёллекен, Роберт Шупп, Питер Вульф, Хабертус Хартманн, Клаус Й. Берендт, Михаэль Кранц, Ганс Кремер, Питер Кремер, Вики Крипс, Оливер Негеле, Хари Принц, Беньямин Задлер
Сюжет фильма:
В январе 1944 Роммель был назначен командующим группой армий «В» в Северной Франции. Он попытался сделать «Атлантический вал» серьёзным препятствием для противника. Однако из-за стратегических разногласий с командующим всей войсковой группировкой во Франции - фельдмаршалом Рундштедтом, единый план обороны западной границы рейха не был выработан, что и привело к неоперативности и несогласованности действий немецких войск во время высадки союзников в Нормандии 6 июня 1944 года.

  • Мировая премьера: 1 ноября 2012

Качество видео: HDRip

Продолжительность: 01:58:00
Формат: AVI
Видео: XviD, 720x400, 1370 kbps
Аудио: одноголосый закадровый [авторский], AC3 2.0, 384 kbps

Код:

D:\Фильмы (роздача)\Rommel.2012.HDRip.avi
   General
      Complete name : D:\Фильмы (роздача)\Rommel.2012.HDRip.avi
      Format : AVI
      Format/Info : Audio Video Interleave
      File size : 1.46 GiB
      Duration : 1h 58mn
      Overall bit rate : 1 764 Kbps
      Writing application : VirtualDubMod 1.5.10.2 (build 2540/release)
      Writing library : VirtualDubMod build 2540/release
   Video #0
      ID : 0
      Format : MPEG-4 Visual
      Format profile : Advanced Simple@L5
      Format settings, BVOP : 2
      Format settings, QPel : No
      Format settings, GMC : No warppoints
      Format settings, Matrix : Default (MPEG)
      Codec ID : XVID
      Codec ID/Hint : XviD
      Duration : 1h 58mn
      Bit rate : 1 370 Kbps
      Width : 720 pixels
      Height : 400 pixels
      Display aspect ratio : 16:9
      Frame rate : 25.000 fps
      Color space : YUV
      Chroma subsampling : 4:2:0
      Bit depth : 8 bits
      Scan type : Progressive
      Compression mode : Lossy
      Bits/(Pixel*Frame) : 0.190
      Stream size : 1.14 GiB (78%)
      Writing library : XviD 1.2.1 (UTC 2008-12-04)
   Audio #1
      ID : 1
      Format : AC-3
      Format/Info : Audio Coding 3
      Mode extension : CM (complete main)
      Format settings, Endianness : Big
      Codec ID : 2000
      Duration : 1h 58mn
      Bit rate mode : Constant
      Bit rate : 384 Kbps
      Channel(s) : 2 channels
      Channel positions : Front: L R
      Sampling rate : 48.0 KHz
      Bit depth : 16 bits
      Compression mode : Lossy
      Stream size : 326 MiB (22%)
      Alignment : Split accross interleaves
      Interleave, duration : 40 ms (1.00 video frame)
      Interleave, preload duration : 500 ms
Семпл: http://multi-up.com/909021

picpicpicpicpicpic
Для увеличения картинки щелкните мышкой по превью

Этот торрент недоступен для скачивания без регистрации, однако доступен по публичной magnet-ссылке (источники с публичных трекеров). Перед использованием ссылки прочтите, пожалуйста Пользовательское соглашение, а также как можно дольше оставайтесь на раздаче! Для того, чтобы скачать сам торрент-файл (который видит больше источников), а также для того, чтобы поблагодарить релизера, вам необходимо зарегистрироваться. Если регистрироваться лень - вы можете также попробовать скачать релиз по нашим партнерским ссылкам ниже.

[underverse.su].t31521.torrent
Трекер: Зарегистрирован   [ 02.10.2013 16:13 ]  

Статус: проверено (by 90ytr90 at 02.10.2013 16:34)
Поблагодарили: пока никто не поблагодарил...
Тип торрента: публичный - доступные источники с открытых трекеров: 
Размер: 1,46 GB (занимает 0,33 DVDR, для записи нужно 1 болванка DVDR/RW)
 
 
Похожие темы
Форум Тема Автор Торрент Отв. Посл. сооб.
Зарубежное кино [DVDRip, Low-Res HDRip, и т.д.] Роммель / Rommel (Ники Стейн) [2012 г., боевик, драма, военный, биография, история, BDRip] AVO (Ю.Сербин) 90ytr90
16 | 3

0 | 1140

30

02.10.2013 14:04

Зарубежное кино [HDDVDRip / BDRip / WEB-DL / HDTV 1080/720р] Роммель / Rommel (Ники Штайн) [2012 г., Боевик, Драма, Военный, Биография, BDRip 1080p] MVO (RUS, 365 дней ТВ) + AVO (RUS, Ю. Сербин) + Original (GER) + Subs (ENG) Ведьмочка
2 | 0

0 | 185

0

20.09.2014 15:14

Зарубежное кино [HDDVDRip / BDRip / WEB-DL / HDTV 1080/720р] Роммель / Rommel (Ники Штайн) [2012 г., Боевик, Драма, Военный, Биография, BDRip 720p] MVO (RUS, 365 дней ТВ) + AVO (RUS, Ю. Сербин) + Original (GER) + Subs (ENG) Ведьмочка
5 | 0

0 | 227

4

20.09.2014 15:22


Яндекс.Метрика powered by Sphinx


В Н И М А Н И Е
Сайт не распространяет и не хранит электронные версии произведений, а лишь бесплатно и без коммерческой выгоды (не требуя взамен платы,
SMS и т.д.) предоставляет доступ к создаваемому пользователями каталогу ссылок на торрент-файлы, которые содержат только списки хеш-сумм.
Убедительная просьба с жалобами обращаться напрямую к пользователю, разместившему торрент файл.

Вверх