Loading...
Error

Дурная кровь (Непобежденная) / Серии 1-14 (14) (Александр (Алеко) Цабадзе, Сергей Бобров (II)) [2013 г., Криминал, Мелодрама, SatRip]

Статистика раздачи
Размер:  8,77 GB   |    Зарегистрирован:  3 года 2 месяца   |    Скачан:  19 раз

Полного источника не было: 18 дней

Сидов:  0  |  0 KB/s  ]   Личеров:  0  |  0 KB/s  ]

* - сиды/пиры с внешних источников

   
 
Автор Сообщение

nemos Пол:Муж

02-Окт-2013 06:48

Дурная кровь (Непобежденная)


Год выпуска: 2013
Жанр: Криминал, Мелодрама
Страна: Россия
Режиссер: Александр (Алеко) Цабадзе, Сергей Бобров (II)
В ролях: Мария Козакова, Вадим Дорофеев, Павел Прилучный, Роман Курцын, Ксения Алферова, Александр Галибин, Андрей Ильин, Кирилл Сафонов, Ольга Аксёнова-Кавалай, Дмитрий Варшавский, Иван Соловьев (III), Вячеслав Гасай, Роман Синицын
Сюжет фильма:
В небольшом провинциальном городе живет прекрасная девушка Маша. Она любимица всех и вся, и кажется, что в ее жизни никогда не было и не будет проблем. Но Маша приезжает в Москву и попадает в историю, которая переворачивает ее жизнь с ног на голову: девушку жестоко насилует сын богатого человека - владельца завода. Машу с трудом спасают после этого случая, но... девушка узнает, что ждет ребенка от насильника, а позже и то, что ребенок стал единственным наследником индустриальной империи своего деда и мишенью для собственного отца.


Качество видео: SatRip

Продолжительность: 00:48:39 серия
Формат: AVI
Видео: XviD, 720x384, 1 649 kbps
Аудио: русский, MP3 2.0, 192 kbps

Код:

D:\Фильмы (роздача)\Durnaya.krov.2013.XviD.SATRip.Files-x\Durnaya.krov.(14.seriya).2013.XviD.SATRip.Files-x.avi
   General
      Complete name : D:\Фильмы (роздача)\Durnaya.krov.2013.XviD.SATRip.Files-x\Durnaya.krov.(14.seriya).2013.XviD.SATRip.Files-x.avi
      Format : AVI
      Format/Info : Audio Video Interleave
      File size : 644 MiB
      Duration : 48mn 39s
      Overall bit rate : 1 851 Kbps
      Writing application : VirtualDubModRus 1.5.10.2 (build 2540/release)
      Writing library : VirtualDubMod build 2540/release
   Video #0
      ID : 0
      Format : MPEG-4 Visual
      Format profile : Advanced Simple@L5
      Format settings, BVOP : 1
      Format settings, QPel : No
      Format settings, GMC : No warppoints
      Format settings, Matrix : Default (H.263)
      Codec ID : XVID
      Codec ID/Hint : XviD
      Duration : 48mn 39s
      Bit rate : 1 649 Kbps
      Width : 720 pixels
      Height : 384 pixels
      Display aspect ratio : 1.85:1
      Frame rate : 25.000 fps
      Color space : YUV
      Chroma subsampling : 4:2:0
      Bit depth : 8 bits
      Scan type : Progressive
      Compression mode : Lossy
      Bits/(Pixel*Frame) : 0.239
      Stream size : 574 MiB (89%)
      Writing library : XviD 1.2.1 (UTC 2008-12-04)
   Audio #1
      ID : 1
      Format : MPEG Audio
      Format version : Version 1
      Format profile : Layer 3
      Codec ID : 55
      Codec ID/Hint : MP3
      Duration : 48mn 39s
      Bit rate mode : Constant
      Bit rate : 192 Kbps
      Channel(s) : 2 channels
      Sampling rate : 48.0 KHz
      Compression mode : Lossy
      Stream size : 66.8 MiB (10%)
      Alignment : Aligned on interleaves
      Interleave, duration : 40 ms (1.00 video frame)
      Interleave, preload duration : 504 ms
      Writing library : LAME3.98r
      Encoding settings : -m s -V 4 -q 2 -lowpass 18.6 -b 192
Семпл: http://multi-up.com/908855

picpicpicpicpicpicpicpicpicpicpicpicpic
Для увеличения картинки щелкните мышкой по превью

Этот торрент недоступен для скачивания без регистрации, однако доступен по публичной magnet-ссылке (источники с публичных трекеров). Перед использованием ссылки прочтите, пожалуйста Пользовательское соглашение, а также как можно дольше оставайтесь на раздаче! Для того, чтобы скачать сам торрент-файл (который видит больше источников), а также для того, чтобы поблагодарить релизера, вам необходимо зарегистрироваться. Если регистрироваться лень - вы можете также попробовать скачать релиз по нашим партнерским ссылкам ниже.

[underverse.su].t31751.torrent
Трекер: Зарегистрирован   [ 10.10.2013 08:08 ]  

Статус: проверено (by Чертёнок at 10.10.2013 08:11)
Поблагодарили: 2 человека
Тип торрента: публичный - доступные источники с открытых трекеров: 
Размер: 8,77 GB (занимает 2 DVDR, для записи нужно 3 болванки DVDR/RW)
 
 


Последний раз редактировалось: nemos (06.11.2014 09:40), всего редактировалось 7 раз(а)

nemos Пол:Муж

02-Окт-2013 20:45

Торрент обновлён! Добавлены серии:7-8


Последний раз редактировалось: nemos (04.10.2013 16:09), всего редактировалось 1 раз

konopic Пол:Муж

02-Окт-2013 21:01

Спасибо, уже присоединился )))

nemos Пол:Муж

07-Окт-2013 20:02

Торрент обновлён! Добавлены серии:13-14

Яндекс.Метрика powered by Sphinx


В Н И М А Н И Е
Сайт не распространяет и не хранит электронные версии произведений, а лишь бесплатно и без коммерческой выгоды (не требуя взамен платы,
SMS и т.д.) предоставляет доступ к создаваемому пользователями каталогу ссылок на торрент-файлы, которые содержат только списки хеш-сумм.
Убедительная просьба с жалобами обращаться напрямую к пользователю, разместившему торрент файл.

Вверх