Loading...
Error

Форсаж 6 / Fast & Furious 6 (Джастин Лин) [2013 г., боевик, триллер, драма, криминал, BDRip] Dub + Original + Sub (Rus,Eng) HQ Underverse

Статистика раздачи
Размер:  2,17 GB   |    Зарегистрирован:  3 года 2 месяца   |    Скачан:  72 раза

Полного источника не было: 4 месяца 22 дня

Сидов:  0  |  0 KB/s  ]   Личеров:  0  |  0 KB/s  ]

* - сиды/пиры с внешних источников

   
 
Автор Сообщение

HQ Underverse 

30-Сен-2013 07:40

Форсаж 6 / Fast & Furious 6


Год выпуска: 2013
Жанр: боевик, триллер, драма, криминал
Страна: США
Режиссер: Джастин Лин
В ролях: Вин Дизель, Пол Уокер, Дуэйн Джонсон, Мишель Родригес, Люк Эванс, Тайриз Гибсон, Лудакрис, Санг Кенг, Галь Гадот, Джордана Брюстер, Джина Карано
Сюжет фильма:
После того как Доминик и Брайн побывали в Рио, где они ограбили и свергли империю вора в законе, их команда получила 100 миллионов, и наши герои оказались разбросаны по всему миру. Но их привычка вечно жить в бегах не даёт им покоя. Между тем, Хоббс отслеживал организацию смертельно опасных наёмников-водителей по двенадцати странам. Единственный способ остановить эту криминальную группу - это превзойти их на улицах, поэтому Хоббс просит Доминика собрать его элитную команду в Лондоне. За это он обещает полное помилование для Доминика и его друзей, чтобы они смогли наконец вернуться домой к своей семье.

  • Мировая премьера: 7 мая 2013
  • Российская премьера: 23 мая 2013, «UPI»

|
Качество видео: BDRip

Продолжительность: 02:11:02
Формат: avi
Видео: XviD, 720x304, 1973 kbps
Аудио #1: русский, дублированный [лицензия], AC3 5.1, 384 kbps
Аудио #2: английский, оригинал, AC3 5.1, 384 kbps (отдельным файлом: здесь)
Субтитры #1: внешние, SRT, русский
Субтитры #2: внешние, SRT, английский

Код:

General
Complete name                    : Z:\windoza-share\Форсаж 6\Fast.And.Furious.6.2013.BDRip.XviD.AC3.Rus.D.HQ.Underverse.avi
Format                           : AVI
Format/Info                      : Audio Video Interleave
Format profile                   : OpenDML
File size                        : 2.17 GiB
Duration                         : 2h 11mn
Overall bit rate                 : 2 370 Kbps
Writing application              : VirtualDubMod 1.5.10.2 (build 2540/release)
Writing library                  : VirtualDubMod build 2540/release

Video
ID                               : 0
Format                           : MPEG-4 Visual
Format profile                   : Streaming Video@L1
Format settings, BVOP            : Yes
Format settings, QPel            : No
Format settings, GMC             : No warppoints
Format settings, Matrix          : Custom
Muxing mode                      : Packed bitstream
Codec ID                         : XVID
Codec ID/Hint                    : XviD
Duration                         : 2h 11mn
Bit rate                         : 1 974 Kbps
Width                            : 720 pixels
Height                           : 304 pixels
Display aspect ratio             : 2.35
Frame rate                       : 23.976 fps
Resolution                       : 24 bits
Colorimetry                      : 4:2:0
Scan type                        : Progressive
Bits/(Pixel*Frame)               : 0.376
Stream size                      : 1.81 GiB (83%)
Writing library                  : XviD 64

Audio
ID                               : 1
Format                           : AC-3
Format/Info                      : Audio Coding 3
Codec ID                         : 2000
Duration                         : 2h 11mn
Bit rate mode                    : Constant
Bit rate                         : 384 Kbps
Channel(s)                       : 6 channels
Channel positions                : Front: L C R, Surround: L R, LFE
Sampling rate                    : 48.0 KHz
Stream size                      : 360 MiB (16%)
Alignment                        : Split accross interleaves
Interleave, duration             : 42 ms (1.00 video frame)
Interleave, preload duration     : 500 ms

General
Complete name                    : Z:\windoza-share\Форсаж 6\Fast.And.Furious.6.2013.BDRip.XviD.AC3.Rus.D.HQ.Underverse.ENG.ac3
Format                           : AC-3
Format/Info                      : Audio Coding 3
File size                        : 360 MiB
Duration                         : 2h 11mn
Overall bit rate                 : 384 Kbps

Audio
Format                           : AC-3
Format/Info                      : Audio Coding 3
Duration                         : 2h 11mn
Bit rate mode                    : Constant
Bit rate                         : 384 Kbps
Channel(s)                       : 6 channels
Channel positions                : Front: L C R, Surround: L R, LFE
Sampling rate                    : 48.0 KHz
Stream size                      : 360 MiB (100%)

Релиз группы:

picpicpic
Для увеличения картинки щелкните мышкой по превью

Этот торрент недоступен для скачивания без регистрации, однако доступен по публичной magnet-ссылке (источники с публичных трекеров). Перед использованием ссылки прочтите, пожалуйста Пользовательское соглашение, а также как можно дольше оставайтесь на раздаче! Для того, чтобы скачать сам торрент-файл (который видит больше источников), а также для того, чтобы поблагодарить релизера, вам необходимо зарегистрироваться. Если регистрироваться лень - вы можете также попробовать скачать релиз по нашим партнерским ссылкам ниже.

[underverse.su].t31444.torrent
Трекер: Зарегистрирован   [ 30.09.2013 07:40 ]  

Статус: проверено (by HQ Underverse at 30.09.2013 07:42)
Поблагодарили: 3 человека
Тип торрента: публичный - доступные источники с открытых трекеров: 
Размер: 2,17 GB (занимает 1/2 DVDR, для записи нужно 1 болванка DVDR/RW)
 
 
Похожие темы
Форум Тема Автор Торрент Отв. Посл. сооб.
Зарубежное кино [DVDRip, Low-Res HDRip, и т.д.] Форсаж 6 / Fast & Furious 6 (Джастин Лин / Justin Lin) [2013 г., боевик, триллер, драма, криминал, BDRip] [Extented cut] Dub 90ytr90
0 | 0

0 | 394

13

31.01.2015 22:10

Зарубежное кино [DVDRip, Low-Res HDRip, и т.д.] Форсаж 6 / Fast & Furious 6 (Джастин Лин / Justin Lin) [2013 г., боевик, триллер, драма, криминал, BDRip] [Extented cut] Dub 90ytr90
2 | 0

0 | 446

11

31.01.2015 22:10

Зарубежное кино [DVDRip, Low-Res HDRip, и т.д.] Форсаж 6 / Fast & Furious 6 (Джастин Лин / Justin Lin) [2013 г., боевик, триллер, драма, криминал, BDRip-AVC] [Extented cut] Dub + Subs 90ytr90
39 | 0

0 | 429

6

31.01.2015 22:11

Зарубежное кино [HDDVDRip / BDRip / WEB-DL / HDTV 1080/720р] Форсаж 6 / Furious 6 (Джастин Лин) [2013 г., боевик, триллер, драма, криминал, WEB-DLRip 1080p] Dub slaventi-69
0 | 0

1 | 1091

54

21.07.2013 11:55

Зарубежное кино [HDDVDRip / BDRip / WEB-DL / HDTV 1080/720р] Форсаж 6 / Fast & Furious 6 (Джастин Лин / Justin Lin) [2013 г., боевик, триллер, драма, криминал, BDRip 1080p] [Extented cut] Dub + Original (Eng) + Sub (Rus, Eng) 90ytr90
22 | 0

0 | 483

4

04.02.2015 19:15

Зарубежное кино [HDDVDRip / BDRip / WEB-DL / HDTV 1080/720р] Форсаж 6 / Fast & Furious 6 (Джастин Лин / Justin Lin) [2013 г., боевик, триллер, драма, криминал, BDRip 1080p] [Extented cut] Dub + Original (Eng) + Sub (Rus, Eng) 90ytr90
11 | 0

0 | 442

10

04.02.2015 19:30

Зарубежное кино [HDDVDRip / BDRip / WEB-DL / HDTV 1080/720р] Форсаж 6 / Fast & Furious 6 (Джастин Лин / Justin Lin) [2013 г., боевик, триллер, драма, криминал, BDRip 720p] [Extended Cut] Dub + Original (Eng) + Subs 90ytr90
1 | 0

0 | 389

2

04.02.2015 19:40

Зарубежное кино [HDDVDRip / BDRip / WEB-DL / HDTV 1080/720р] Форсаж 6 / Fast & Furious 6 (Джастин Лин / Justin Lin) [2013 г., боевик, триллер, драма, криминал, BDRip 720p] [Extended Cut] Dub + Sub (Rus) 90ytr90
12 | 1

0 | 480

17

04.02.2015 19:50

Видео для смартфонов Форсаж 6 / Fast & Furious 6 [2013 г., боевик, триллер, драма, криминал, WEBDLRip] Dub | КПК Чертёнок
0 | 0

0 | 1060

17

06.07.2013 10:38


Яндекс.Метрика powered by Sphinx


В Н И М А Н И Е
Сайт не распространяет и не хранит электронные версии произведений, а лишь бесплатно и без коммерческой выгоды (не требуя взамен платы,
SMS и т.д.) предоставляет доступ к создаваемому пользователями каталогу ссылок на торрент-файлы, которые содержат только списки хеш-сумм.
Убедительная просьба с жалобами обращаться напрямую к пользователю, разместившему торрент файл.

Вверх