Loading...
Error

Динамо: Невероятный иллюзионист / Dynamo: Magician Impossible (3 сезон / 4 из 4) [2013 г., Шоу, фокусы, IPTVRip]

Статистика раздачи
Размер:  3,2 GB   |    Зарегистрирован:  3 года 1 месяц   |    Скачан:  11 раз

Полного источника не было: 6 месяцев

Сидов:  0  |  0 KB/s  ]   Личеров:  0  |  0 KB/s  ]

* - сиды/пиры с внешних источников

   
 
Автор Сообщение

ZondeR Пол:Муж

29-Сен-2013 20:01

Динамо: Невероятный иллюзионист / Dynamo: Magician Impossible
3 сезон
Год выпуска: 2013
Жанр: Шоу, фокусы
Страна: Великобритания


Сюжет фильма:
Знаменитый британский уличный маг Динамо представляет третий сезон программы «Динамо: невероятный иллюзионист». Этот парень творит чудеса у всех на глазах – да и само его появление стало чудом. На этот раз сценой фокусника станут улицы Нью-Йорка и Ибицы, Южной Африки и Великобритании. С помощью самых простых вещей вроде веревки, часов или мобильного телефона он будет превращать обыденную реальность в волшебную феерию за счет ловкости рук, смекалки и вечной веры человека в то, что чудеса случаются, если этого очень захотеть. И чудеса действительно случаются – деревянные животные под пассами рук Динамо оживают, мобильный телефон оказывается в бутылке с узким горлышком, а сквозь слой толстого льда начинает бить фонтан.

Продолжительность: 00:59:38
Формат: ts
Видео: x264, 720x576, 1286 kbps
Аудио: русский, многоголосый закадровый [профессиональный], MP3 2.0, 128 kbps

Код:

General
ID                               : F4CC
Complete name                    : E:\Квин\Динамо\1 серия (Эфир от 22.09.2013).ts
Format                           : MPEG-TS
File size                        : 648 MiB
Duration                         : 59mn 38s
Overall bit rate                 : 1 520 Kbps

Video
ID                               : 69 (0x45)
Menu ID                          : 1 (0x1)
Format                           : AVC
Format/Info                      : Advanced Video Codec
Format profile                   : High@L3.0
Format settings, CABAC           : Yes
Format settings, ReFrames        : 4 frames
Duration                         : 59mn 38s
Bit rate                         : 1 286 Kbps
Nominal bit rate                 : 1 372 Kbps
Width                            : 720 pixels
Height                           : 576 pixels
Display aspect ratio             : 4/3
Frame rate                       : 25.000 fps
Standard                         : PAL
Resolution                       : 24 bits
Colorimetry                      : 4:2:0
Scan type                        : Progressive
Bits/(Pixel*Frame)               : 0.124
Stream size                      : 549 MiB (85%)
Writing library                  : x264 core 124 r2197 69a0443
Encoding settings                : cabac=1 / ref=1 / deblock=1:0:0 / analyse=0x3:0x13 / me=dia / subme=1 / psy=1 / psy_rd=1.00:0.00 / mixed_ref=0 / me_range=16 / chroma_me=1 / trellis=0 / 8x8dct=1 / cqm=0 / deadzone=21,11 / fast_pskip=1 / chroma_qp_offset=0 / threads=12 / sliced_threads=0 / nr=0 / decimate=1 / interlaced=0 / bluray_compat=0 / constrained_intra=0 / bframes=3 / b_pyramid=2 / b_adapt=1 / b_bias=0 / direct=1 / weightb=1 / open_gop=0 / weightp=1 / keyint=60 / keyint_min=6 / scenecut=40 / intra_refresh=0 / rc_lookahead=0 / rc=cbr / mbtree=0 / bitrate=1372 / ratetol=1.0 / qcomp=0.60 / qpmin=10 / qpmax=51 / qpstep=4 / vbv_maxrate=1372 / vbv_bufsize=1500 / nal_hrd=none / ip_ratio=1.40 / pb_ratio=1.30 / aq=1:1.00

Audio
ID                               : 68 (0x44)
Menu ID                          : 1 (0x1)
Format                           : MPEG Audio
Format version                   : Version 1
Format profile                   : Layer 3
Duration                         : 59mn 38s
Bit rate mode                    : Constant
Bit rate                         : 128 Kbps
Channel(s)                       : 2 channels
Sampling rate                    : 44.1 KHz
Resolution                       : 16 bits
Video delay                      : -14ms
Stream size                      : 54.6 MiB (8%)
Language                         : Russian


picpicpicpic
Для увеличения картинки щелкните мышкой по превью

Первые две серии, заменены на качеством получше, кто не хочет их скачать ещё раз, снимите галочки в торрент-клиенте!

Этот торрент недоступен для скачивания без регистрации, однако доступен по публичной magnet-ссылке (источники с публичных трекеров). Перед использованием ссылки прочтите, пожалуйста Пользовательское соглашение, а также как можно дольше оставайтесь на раздаче! Для того, чтобы скачать сам торрент-файл (который видит больше источников), а также для того, чтобы поблагодарить релизера, вам необходимо зарегистрироваться. Если регистрироваться лень - вы можете также попробовать скачать релиз по нашим партнерским ссылкам ниже.

[underverse.su].t32139.torrent
Трекер: Зарегистрирован   [ 21.10.2013 09:03 ]  

Статус: проверено (by ZondeR at 21.10.2013 09:04)
Поблагодарили: пока никто не поблагодарил...
Тип торрента: публичный - доступные источники с открытых трекеров: 
Размер: 3,2 GB (занимает 0,73 DVDR, для записи нужно 1 болванка DVDR/RW)
 
 
Похожие темы
Форум Тема Автор Торрент Отв. Посл. сооб.
Discovery Динамо: Невероятный иллюзионист / Dynamo: Magician Impossible (1 сезон/4 из 4) [2012 г., Шоу, фокусы, SatRip] VO (НТВ+) ZondeR
0 | 0

4 | 1980

47

04.10.2012 18:33

Discovery Динамо: Невероятный иллюзионист / Dynamo: Magician Impossible (2 сезон / 4 из 4) [2012 г., Шоу, фокусы, SatRip] VO (НТВ+) ZondeR
0 | 0

1 | 2144

19

28.10.2012 20:02

Discovery Динамо: Невероятный иллюзионист / Dynamo: Magician Impossible (4 сезон / 4 из 4) [2014 г., Шоу, фокусы, HDTVRip] ZondeR
5 | 1

0 | 1005

18

02.12.2014 16:13

ZondeR Пол:Муж

21-Окт-2013 09:06

Добавлены все серии, первые две тоже заменены, так что внимательней, а то будет по две 1,2 серии!

Яндекс.Метрика powered by Sphinx


В Н И М А Н И Е
Сайт не распространяет и не хранит электронные версии произведений, а лишь бесплатно и без коммерческой выгоды (не требуя взамен платы,
SMS и т.д.) предоставляет доступ к создаваемому пользователями каталогу ссылок на торрент-файлы, которые содержат только списки хеш-сумм.
Убедительная просьба с жалобами обращаться напрямую к пользователю, разместившему торрент файл.

Вверх