Loading...
Error

Взять живым (3 серии из 3) (Вадим Лысенко) [1982 г., военный , DVDRip]

Статистика раздачи
Размер:  2,18 GB   |    Зарегистрирован:  3 года 2 месяца   |    Скачан:  7 раз

Полного источника не было: 2 дня 1 час

Сидов:  0  |  0 KB/s  ]   Личеров:  0  |  0 KB/s  ]

* - сиды/пиры с внешних источников

   
 
Автор Сообщение

vasilich619 Пол:Муж

28-Сен-2013 12:41

Взять живым (3 серии из 3)


Год выпуска: 1982
Жанр: военный
Страна: СССР
Производство: Одесская киностудия
Режиссер: Вадим Лысенко
В ролях: Федор Сухов, Александр Потапов, Игорь Ефимов, Юрий Соловьев, Георгий Назаренко, Александр Игнатуша, Сергей Маковецкий, Александр Беспалый, Анатолий Юрченко, Виктор Павлов...
Сюжет фильма:
О судьбе солдата Василия Ромашкина, вчерашнего десятиклассника, прошедшего через все испытания Великой Отечественной войны и закончившего боевой путь офицером разведки.

  • Мировая премьера: 3 мая 1983

Качество видео: DVDRip

Продолжительность: 3~01:07:09
Формат: avi
Видео: DivX 5, 688x512, 1411 kbps
Аудио: русский, MP3 2.0, 128 kbps
Перевод: не требуется

Код:

General
Complete name                    : E:\Фильмы\Военные\Vzyat.zhivim.(1982).DVDRip\01.Vzyat.zhivim.(1982).DVDRip.avi
Format                           : AVI
Format/Info                      : Audio Video Interleave
File size                        : 744 MiB
Duration                         : 1h 7mn
Overall bit rate                 : 1 549 Kbps
Director                         : Xamasas
Writing application              : VirtualDubMod 1.5.10.2 (build 2540/release)

Video
ID                               : 0
Format                           : MPEG-4 Visual
Format settings, BVOP            : Yes
Format settings, QPel            : No
Format settings, GMC             : No warppoints
Format settings, Matrix          : Default (H.263)
Muxing mode                      : Packed bitstream
Codec ID                         : DX50
Codec ID/Hint                    : DivX 5
Duration                         : 1h 7mn
Bit rate                         : 1 412 Kbps
Width                            : 688 pixels
Height                           : 512 pixels
Display aspect ratio             : 4/3
Frame rate                       : 25.000 fps
Resolution                       : 24 bits
Colorimetry                      : 4:2:0
Scan type                        : Progressive
Bits/(Pixel*Frame)               : 0.160
Stream size                      : 678 MiB (91%)
Writing library                  : DivX 5.2.1 (WaffleDay) (UTC 2004-09-08)

Audio
ID                               : 1
Format                           : MPEG Audio
Format version                   : Version 1
Format profile                   : Layer 3
Codec ID                         : 55
Codec ID/Hint                    : MP3
Duration                         : 1h 7mn
Bit rate mode                    : Constant
Bit rate                         : 128 Kbps
Channel(s)                       : 2 channels
Sampling rate                    : 48.0 KHz
Resolution                       : 16 bits
Stream size                      : 61.5 MiB (8%)
Alignment                        : Aligned on interleaves
Interleave, duration             : 40 ms (1.00 video frame)
Interleave, preload duration     : 504 ms

Семпл: http://multi-up.com/907282
picpicpicpicpicpicpic
Для увеличения картинки щелкните мышкой по превью

Этот торрент недоступен для скачивания без регистрации, однако доступен по публичной magnet-ссылке (источники с публичных трекеров). Перед использованием ссылки прочтите, пожалуйста Пользовательское соглашение, а также как можно дольше оставайтесь на раздаче! Для того, чтобы скачать сам торрент-файл (который видит больше источников), а также для того, чтобы поблагодарить релизера, вам необходимо зарегистрироваться. Если регистрироваться лень - вы можете также попробовать скачать релиз по нашим партнерским ссылкам ниже.

[underverse.su].t31372.torrent
Трекер: Зарегистрирован   [ 28.09.2013 12:41 ]  

Статус: проверено (by Чертёнок at 21.10.2013 16:34)
Поблагодарили: пока никто не поблагодарил...
Тип торрента: публичный - доступные источники с открытых трекеров: 
Размер: 2,18 GB (занимает 1/2 DVDR, для записи нужно 1 болванка DVDR/RW)
 
 


Последний раз редактировалось: vasilich619 (09.10.2013 12:43), всего редактировалось 1 раз

90ytr90 

28-Сен-2013 14:23

Цитата:

Зарегистрирован: 1 час 22 минуты

vasilich619 ®        10,6      23,12 GB

Скрытый текст, требуется 2000 сид-бонусов (у вас их нет вообще, вы же не залогинены):

содержимое скрыто

Яндекс.Метрика powered by Sphinx


В Н И М А Н И Е
Сайт не распространяет и не хранит электронные версии произведений, а лишь бесплатно и без коммерческой выгоды (не требуя взамен платы,
SMS и т.д.) предоставляет доступ к создаваемому пользователями каталогу ссылок на торрент-файлы, которые содержат только списки хеш-сумм.
Убедительная просьба с жалобами обращаться напрямую к пользователю, разместившему торрент файл.

Вверх