Loading...
Error

1993:Когда расстреляли свободу [2013 г., документальный, исторический, HDTVRip]

Статистика раздачи
Размер:  973 MB   |    Зарегистрирован:  3 года 2 месяца   |    Скачан:  29 раз
Сидов:  1  |  0 KB/s  ]   Личеров:  0  |  0 KB/s  ]

* - сиды/пиры с внешних источников

   
 
Автор Сообщение

матроскин Пол:Муж

27-Сен-2013 20:28

1993: Когда расстреляли свободу


Год выпуска: 2013
Жанр: документальный, исторический
Страна: Россия
Выпущено: Красное ТВ
Ведущий: Дмитрий Аграновский
Сюжет фильма:
…Плыл не Дворец - огнем объятый крейсер, Шумел народ, змеился окоём. Всех, кто погиб геройски в этом рейсе, Мы скоро поименно назовем… События 3-4 октября 1993 года, когда ельцинисты из танков расстреляли Дворец Советов и законно избранный Парламент, кровавой тенью легли на всю постсоветскую историю России. Страна шагнула в «лихие 90-е» - в бандитскую приватизацию и залоговые аукционы. Россией рулила семибанкирщина, а президент дирижировал оркестром и пел «Калинку-малинку»… Но это всё – цветочки, ягодки были впереди.
Качество видео: HDTVRip

Продолжительность: 00:59:45
Формат: avi
Видео: xvid, 874x480, 2007 kbps
Аудио: русский, оригинал, MP3 2.0, 256 kbps

Код:

General
Complete name                    : C:\Users\Security\Desktop\Новая папка\1993; Когда Расстреляли свободы.avi
Format                           : AVI
Format/Info                      : Audio Video Interleave
File size                        : 973 MiB
Duration                         : 59mn 45s
Overall bit rate                 : 2 276 Kbps
Writing application              : Lavf52.93.0

Video
Format                           : xvid
Codec ID                         : xvid
Duration                         : 59mn 45s
Bit rate                         : 2 008 Kbps
Width                            : 874 pixels
Height                           : 480 pixels
Display aspect ratio             : 16/9
Frame rate                       : 25.000 fps
Resolution                       : 24 bits
Bits/(Pixel*Frame)               : 0.196
Stream size                      : 858 MiB (88%)

Audio
ID                               : 1
Format                           : MPEG Audio
Format version                   : Version 1
Format profile                   : Layer 3
Codec ID                         : 55
Codec ID/Hint                    : MP3
Duration                         : 59mn 44s
Bit rate mode                    : Constant
Bit rate                         : 256 Kbps
Channel(s)                       : 2 channels
Sampling rate                    : 44.1 KHz
Resolution                       : 16 bits
Stream size                      : 109 MiB (11%)
Alignment                        : Aligned on interleaves
Interleave, duration             : 26 ms (0.65 video frame)
Interleave, preload duration     : 52 ms
Writing library                  : LAME3.98.4

picpicpicpicpicpic
Для увеличения картинки щелкните мышкой по превью

Этот торрент недоступен для скачивания без регистрации, однако доступен по публичной magnet-ссылке (источники с публичных трекеров). Перед использованием ссылки прочтите, пожалуйста Пользовательское соглашение, а также как можно дольше оставайтесь на раздаче! Для того, чтобы скачать сам торрент-файл (который видит больше источников), а также для того, чтобы поблагодарить релизера, вам необходимо зарегистрироваться. Если регистрироваться лень - вы можете также попробовать скачать релиз по нашим партнерским ссылкам ниже.

[underverse.su].t31350.torrent
Трекер: Зарегистрирован   [ 27.09.2013 20:28 ]  

Статус: проверено (by матроскин at 27.09.2013 20:30)
Поблагодарили: 1 человек
Тип торрента: публичный - доступные источники с открытых трекеров: 
Размер: 973 MB (занимает 0,22 DVDR, для записи нужно 1 болванка DVDR/RW)
 
 

матроскин Пол:Муж

27-Сен-2013 21:01



Предлагаю скачать и посмотреть эту передачу, особенно это касается современной молодежи. О том как банда преступника Ельцина расстреливала Законодательную власть в Москве 1993 года. Передача посвящена грядущим событиям 3-4 октября.

3 октября 2013 года «Комитет Памяти Жертв трагических событий в городе Москве в сентябре-октябре 1993 года» проводит панихиду у мемориального креста перед зданием АСК – 3, в связи с 20-й годовщиной массовой гибели людей 3 октября 1993 года у телецентра «Останкино».

Сбор участников: в 12.00 на тротуаре перед зданием АСК – 3 (ул. Академика Королева) напротив мемориального креста.

В пятницу, 4 октября 2013 года на Площади 1905 года «Комитет Памяти Жертв трагических событий в городе Москве в сентябре-октябре 1993 года», фракция Коммунистической партии Российской Федерации, Московская городская организация КПРФ, «Союз Советских офицеров», а также группа родственников погибших 3-4 октября 1993 года проводят траурный митинг, траурное шествие с портретами погибших и Православную панихиду у места массовой гибели людей на Дружинниковской улице, посвященные 20-ой годовщине трагических событий в городе Москве.

Сбор участников: в 16.30 на Площади 1905 года.

Начало митинга: в 17.00 час.

добавлено спустя 5 минут 10 секунд:

ЧЕРЕЗ НЕСКОЛЬКО ДНЕЙ , К ГОДОВЩИНЕ СОБЫТИЙ В МОСКВЕ 1993 года, МНОЮ БУДЕТ ПОДГОТОВЛЕН И ВЫЛОЖЕН ОЧЕНЬ ИНТЕРЕСНЫЙ ДОКУМЕНТАЛЬНЫЙ ФИЛЬМ О КРОВАВЫХ СОБЫТИЯХ ПРОИСХОДИВШИХ В МОСКВЕ ОСЕНЬЮ 1993 ГОДА. СЛЕДИТЕ ЗА МОИМИ РАЗДАЧАМИ.

С УВАЖЕНИЕМ МАТРОСКИН

aiv601 Пол:Муж

05-Окт-2013 16:41

Спасибо!

HastaLuego 

06-Окт-2013 12:45

Вечная память героям !

Яндекс.Метрика powered by Sphinx


В Н И М А Н И Е
Сайт не распространяет и не хранит электронные версии произведений, а лишь бесплатно и без коммерческой выгоды (не требуя взамен платы,
SMS и т.д.) предоставляет доступ к создаваемому пользователями каталогу ссылок на торрент-файлы, которые содержат только списки хеш-сумм.
Убедительная просьба с жалобами обращаться напрямую к пользователю, разместившему торрент файл.

Вверх