Loading...
Error

В июне 41 го 2008 (Александр Франскевич-Лайе ) (4 серии из 4) [2008 г., боевик, драма, военный , DVDRip]

Статистика раздачи
Размер:  2,74 GB   |    Зарегистрирован:  3 года 2 месяца   |    Скачан:  11 раз

Полного источника не было: 15 дней

Сидов:  0  |  0 KB/s  ]   Личеров:  1  |  0 KB/s  ]

* - сиды/пиры с внешних источников

   
 
Автор Сообщение

vasilich619 Пол:Муж

27-Сен-2013 17:06

В июне 41 го 2008


Год выпуска: 2008
Всего серий: 4
Жанр: боевик, драма, военный
Страна: Россия , Беларусь
Режиссер: Александр Франскевич-Лайе
В ролях: Сергей Безруков, Ростислав Янковский, Магдалена Горска, Павел Делаг, Виталий Безруков, Владимир Янковский, Михаил Калиничев, Александр Франскевич-Лайе, Алеся Пуховая, Рафаэль Мукаев...
Сюжет фильма:
Накануне войны лейтенант погранвойск Иван Буров прибывает из краткосрочного отпуска для продолжения службы на границе СССР и Польши. После нападения германских войск Буров единственный, кто остается в живых на вверенном ему участке государственной границы. Тем временем враг уже продвинулся далеко на восток.


Качество видео: DVDRip

Продолжительность: 00:52:04
Формат: avi
Видео: XviD, 640x352, 1425 kbps
Аудио: русский, AC3 5.1, 448 kbps
Перевод: не требуется

Код:

General
Complete name                    : E:\Фильмы\Военные\В июне 41 го 2008\V.iune.1941-go.2008.S1.O.DVDRip.avi
Format                           : AVI
Format/Info                      : Audio Video Interleave
File size                        : 701 MiB
Duration                         : 52mn 4s
Overall bit rate                 : 1 883 Kbps
Writing application              : VirtualDubMod 1.5.10.2 (build 2540/release)
Writing library                  : VirtualDubMod build 2540/release

Video
ID                               : 0
Format                           : MPEG-4 Visual
Format profile                   : Streaming Video@L1
Format settings, BVOP            : Yes
Format settings, QPel            : No
Format settings, GMC             : No warppoints
Format settings, Matrix          : Default (MPEG)
Muxing mode                      : Packed bitstream
Codec ID                         : XVID
Codec ID/Hint                    : XviD
Duration                         : 52mn 4s
Bit rate                         : 1 426 Kbps
Width                            : 640 pixels
Height                           : 352 pixels
Display aspect ratio             : 16/9
Frame rate                       : 25.000 fps
Resolution                       : 24 bits
Colorimetry                      : 4:2:0
Scan type                        : Progressive
Bits/(Pixel*Frame)               : 0.253
Stream size                      : 531 MiB (76%)
Writing library                  : XviD 1.2.0.dev47 (UTC 2006-11-01)

Audio
ID                               : 1
Format                           : AC-3
Format/Info                      : Audio Coding 3
Codec ID                         : 2000
Duration                         : 52mn 4s
Bit rate mode                    : Constant
Bit rate                         : 448 Kbps
Channel(s)                       : 6 channels
Channel positions                : Front: L C R, Surround: L R, LFE
Sampling rate                    : 48.0 KHz
Stream size                      : 167 MiB (24%)
Alignment                        : Split accross interleaves
Interleave, duration             : 40 ms (1.00 video frame)
Interleave, preload duration     : 500 ms

Семпл: http://multi-up.com/907209
picpicpicpicpicpicpicpicpic
Для увеличения картинки щелкните мышкой по превью

Этот торрент недоступен для скачивания без регистрации, однако доступен по публичной magnet-ссылке (источники с публичных трекеров). Перед использованием ссылки прочтите, пожалуйста Пользовательское соглашение, а также как можно дольше оставайтесь на раздаче! Для того, чтобы скачать сам торрент-файл (который видит больше источников), а также для того, чтобы поблагодарить релизера, вам необходимо зарегистрироваться. Если регистрироваться лень - вы можете также попробовать скачать релиз по нашим партнерским ссылкам ниже.

[underverse.su].t31340.torrent
Трекер: Зарегистрирован   [ 27.09.2013 17:06 ]  

Статус: проверено (by Чертёнок at 27.09.2013 17:25)
Поблагодарили: пока никто не поблагодарил...
Тип торрента: публичный - доступные источники с открытых трекеров: 
Размер: 2,74 GB (занимает 0,63 DVDR, для записи нужно 1 болванка DVDR/RW)
 
 

Яндекс.Метрика powered by Sphinx


В Н И М А Н И Е
Сайт не распространяет и не хранит электронные версии произведений, а лишь бесплатно и без коммерческой выгоды (не требуя взамен платы,
SMS и т.д.) предоставляет доступ к создаваемому пользователями каталогу ссылок на торрент-файлы, которые содержат только списки хеш-сумм.
Убедительная просьба с жалобами обращаться напрямую к пользователю, разместившему торрент файл.

Вверх