Loading...
Error

Судная ночь / The Purge (Джеймс ДеМонако) [2013 г., триллер, ужасы, HDRip] Dub

Статистика раздачи
Размер:  1,37 GB   |    Зарегистрирован:  3 года 2 месяца   |    Скачан:  19 раз

Полного источника не было: 4 месяца 22 дня

Сидов:  0  |  0 KB/s  ]   Личеров:  0  |  0 KB/s  ]

* - сиды/пиры с внешних источников

   
 
Автор Сообщение

Су-34 Пол:Муж

27-Сен-2013 15:40

Судная ночь / The Purge
«Одну ночь в году дозволено все. Главное - дожить до рассвета»


Год выпуска: 2013
Жанр: триллер, ужасы
Страна: США , Франция
Режиссер: Джеймс ДеМонако
В ролях: Итан Хоук, Лина Хиди, Макс Буркхолдер, Аделаида Кэйн, Эдвин Ходж, Риз Уэйкфилд, Тони Оллер, Ария Барейкис, Том Йи, Крис Малки
Сюжет фильма:
Мир будущего — мир без преступности… безработицы… войн. И все это благодаря одной ночи в году, когда можно отправить на тот свет любого — злобного босса, шумных соседей, надоевших родственников. В Судную ночь дозволено все — главное дожить до рассвета.
  • Мировая премьера: 2 мая 2013
  • Российская премьера: 12 июня 2013, «UPI»


Качество видео: HDRip

Продолжительность: 01:25:11
Формат: AVI
Видео: XviD, 720x304, ~1900 kbps
Аудио: дублированный [iTunes Russia], AC-3, 48.0 KHz, 6 ch, 384 Kbps, CBR

Код:

Общее
Формат : AVI
Формат/Информация : Audio Video Interleave
Размер файла : 1,37 Гбайт
Продолжительность : 1 ч. 25 м.
Общий поток : 2294 Кбит/сек
Программа кодирования : VirtualDubMod 1.5.10.2 (build 2540/release)
Библиотека кодирования : VirtualDubMod build 2540/release

Видео
Идентификатор : 0
Формат : MPEG-4 Visual
Профиль формата : Advanced Simple@L5
Параметр BVOP формата : 2
Параметр QPel формата : Нет
Параметр GMC формата : Без точки перехода
Параметр матрицы формата : Выборочная
Идентификатор кодека : XVID
Идентификатор кодека/Подсказка : XviD
Продолжительность : 1 ч. 25 м.
Битрейт : 1901 Кбит/сек
Ширина : 720 пикселей
Высота : 304 пикселя
Соотношение сторон : 2,35:1
Частота кадров : 23,976 кадра/сек
Цветовое пространство : YUV
Субдискретизация насыщенности : 4:2:0
Битовая глубина : 8 бит
Тип развёртки : Прогрессивная
Метод сжатия : С потерями
Бит/(Пиксели*Кадры) : 0.362
Размер потока : 1,13 Гбайт (83%)
Библиотека кодирования : XviD 1.2.1 (UTC 2008-12-04)

Аудио
Идентификатор : 1
Формат : AC-3
Формат/Информация : Audio Coding 3
Расширение режима : CM (complete main)
Параметр Endianness формата : Big
Идентификатор кодека : 2000
Продолжительность : 1 ч. 25 м.
Вид битрейта : Постоянный
Битрейт : 384 Кбит/сек
Каналы : 6 каналов
Расположение каналов : Front: L C R, Side: L R, LFE
Частота : 48,0 КГц
Битовая глубина : 16 бит
Метод сжатия : С потерями
Задержка видео : 31 мс.
Размер потока : 234 Мбайт (17%)
Выравнивание : Разделение по промежуткам
Продолжительность промежутка : 42 мс. (1,00 видеокадр)
Время предзагрузки промежутка : 500 мс.
Семпл: http://multi-up.com/906950

picpicpicpic
Для увеличения картинки щелкните мышкой по превью

Этот торрент недоступен для скачивания без регистрации, однако доступен по публичной magnet-ссылке (источники с публичных трекеров). Перед использованием ссылки прочтите, пожалуйста Пользовательское соглашение, а также как можно дольше оставайтесь на раздаче! Для того, чтобы скачать сам торрент-файл (который видит больше источников), а также для того, чтобы поблагодарить релизера, вам необходимо зарегистрироваться. Если регистрироваться лень - вы можете также попробовать скачать релиз по нашим партнерским ссылкам ниже.

[underverse.su].t31334.torrent
Трекер: Зарегистрирован   [ 27.09.2013 18:43 ]  

Статус: проверено (by Чертёнок at 27.09.2013 18:44)
Поблагодарили: 1 человек
Тип торрента: публичный - доступные источники с открытых трекеров: 
Размер: 1,37 GB (занимает 0,31 DVDR, для записи нужно 1 болванка DVDR/RW)
 
 
Похожие темы
Форум Тема Автор Торрент Отв. Посл. сооб.
Зарубежное кино [DVDRip, Low-Res HDRip, и т.д.] Судная ночь / The Purge (Джеймс ДеМонако) [2013 г., триллер, ужасы, BDRip-AVC] Dub (iTunes Russia) + Original + Sub (Eng) 90ytr90
1 | 1

0 | 477

8

28.09.2013 16:17

Зарубежное кино [DVDRip, Low-Res HDRip, и т.д.] Судная ночь / The Purge (Джеймс ДеМонако) [2013 г., триллер, ужасы, HDRip] Dub 90ytr90
12 | 0

0 | 1737

26

09.10.2013 15:26

Зарубежное кино [DVDRip, Low-Res HDRip, и т.д.] Судная ночь / The Purge (Джеймс ДеМонако) [2013 г., триллер, ужасы, BDRip-AVC] Dub + Original + Subs 90ytr90
6 | 0

0 | 477

17

09.10.2013 15:41

Зарубежное кино [DVDRip, Low-Res HDRip, и т.д.] Судная ночь 3 / The Purge: Election Year (Джеймс ДеМонако / James DeMonaco) [2016 г., ужасы, фантастика, боевик, триллер, BDRip] Dub + Original (Eng) 90ytr90
89 | 8

0 | 163

1

05.11.2016 06:07

T Зарубежное кино [DVDRip, Low-Res HDRip, и т.д.] Судная ночь 2 / The Purge: Anarchy (Джеймс ДеМонако) [2014 г., триллер, криминал, боевик, WEB-DLRip 720p] MVO (BaibaKo) + Original Паукан
0 | 0

0 | 781

11

11.08.2014 15:01

T Зарубежное кино [DVDRip, Low-Res HDRip, и т.д.] Судная ночь 2 / The Purge: Anarchy (Джеймс ДеМонако) [2014 г., триллер, криминал, боевик, WEB-DLRip] MVO [BaibaKo] Паукан
0 | 0

0 | 870

19

12.08.2014 14:01

Зарубежное кино [DVDRip, Low-Res HDRip, и т.д.] Судная ночь 3 / The Purge: Election Year (Джеймс ДеМонако / James DeMonaco) [2016 г., ужасы, фантастика, боевик, триллер, BDRip-AVC] Dub + Sub (Rus) 90ytr90
100 | 9

0 | 366

3

26.10.2016 16:39

Зарубежное кино [DVDRip, Low-Res HDRip, и т.д.] Судная ночь 3 / The Purge: Election Year (Джеймс ДеМонако / James DeMonaco) [2016 г., ужасы, фантастика, боевик, триллер, BDRip-AVC] Dub + Original (Eng) + Sub (Rus, Eng) 90ytr90
120 | 7

0 | 408

2

26.10.2016 16:35

Зарубежное кино [DVDRip, Low-Res HDRip, и т.д.] Судная ночь 3 / The Purge: Election Year (Джеймс ДеМонако / James DeMonaco) [2016 г., ужасы, фантастика, боевик, триллер, BDRip] Dub 90ytr90
422 | 20

0 | 352

2

26.10.2016 16:13

Зарубежное кино [DVDRip, Low-Res HDRip, и т.д.] Судная ночь 2 / The Purge: Anarchy (Джеймс ДеМонако / James DeMonaco) [2014, Триллер, криминал, боевик, BDRip-AVC] Dub (RUS) + Original (ENG) + Subs (RUS, ENG) viktor.r-79
9 | 1

0 | 664

19

11.11.2014 12:59



Последний раз редактировалось: Су-34 (27.09.2013 18:43), всего редактировалось 3 раз(а)

Чертёнок Пол:Муж

27-Сен-2013 16:09

Тут 6 каналов! :(

90ytr90 

27-Сен-2013 16:09

Тип торрента: приватный - доступны источники только с нашего трекера

Чертёнок Пол:Муж

27-Сен-2013 16:15

Лицензии ещё нет.10 октября 2013 только будет :twisted: :twisted:

Яндекс.Метрика powered by Sphinx


В Н И М А Н И Е
Сайт не распространяет и не хранит электронные версии произведений, а лишь бесплатно и без коммерческой выгоды (не требуя взамен платы,
SMS и т.д.) предоставляет доступ к создаваемому пользователями каталогу ссылок на торрент-файлы, которые содержат только списки хеш-сумм.
Убедительная просьба с жалобами обращаться напрямую к пользователю, разместившему торрент файл.

Вверх