Loading...
Error

Притворись моим парнем / 20 ans d'ecart (Давид Моро) [2013 г., комедия, BDRip-AVC] DUB | iTunes Russia

Статистика раздачи
Размер:  1,45 GB   |    Зарегистрирован:  3 года 2 месяца   |    Скачан:  15 раз

Полного источника не было: 1 месяц 20 дней

Сидов:  0  |  0 KB/s  ]   Личеров:  0  |  0 KB/s  ]

* - сиды/пиры с внешних источников

   
 
Автор Сообщение

Печаль'ka Пол:Жен

24-Сен-2013 13:06

Притворись моим парнем / 20 ans d'ecart


Год выхода: 2013
Жанр: комедия
Режиссер: Давид Моро
В ролях: Вирджиния Эфира, Пьер Нини, Шарль Берлинг, Жиль Коэн, Амели Гленн, Камила Джепи, Микаэль Абитбуль, Камиль Пелисье, Женна Азулай, Луи-До де Ланкесэ

О фильме: У редактора модного глянцевого журнала Алисы Лантенс безупречный вкус, отличное резюме и репутация «железной леди». Но однажды начальство намекает, что возглавлять молодежное издание должен кто-то более смелый и провокативный. Решение приходит неожиданно: по нелепой случайности по миру шоу-бизнеса разносится слух о ее романе с 18-летним студентом. Оказывается, что подмоченная репутация — именно то, что нужно для продвижения по карьерной лестнице! Но куда деваться от парня, который и вправду влюбился?



Выпущено: Франция
Продолжительность: 01:32:36
Озвучивание: Дублированное [iTunes Russia]

Формат: MKV
Качество: BDRip-AVC [Рип с BDRemux]
Видео: 1865 Kb/s, 1024x432
Аудио: AC3, 384 kb/s (6 ch)


pic pic pic pic pic
Для увеличения картинки щелкните мышкой по превью
Format : Matroska
Format version : Version 2
File size : 1.45 GiB
Duration : 1h 32mn
Overall bit rate : 2 243 Kbps
Encoded date : UTC 2013-09-23 20:16:04
Writing application : mkvmerge v6.1.0 ('Old Devil') built on Mar 4 2013 09:10:42
Writing library : libebml v1.3.0 + libmatroska v1.4.0

Video
ID : 1
Format : AVC
Format/Info : Advanced Video Codec
Format profile : High@L4.1
Format settings, CABAC : Yes
Format settings, ReFrames : 9 frames
Codec ID : V_MPEG4/ISO/AVC
Duration : 1h 32mn
Bit rate : 1 865 Kbps
Width : 1 024 pixels
Height : 432 pixels
Display aspect ratio : 2.40:1
Frame rate : 24.000 fps
Color space : YUV
Chroma subsampling : 4:2:0
Bit depth : 8 bits
Scan type : Progressive
Bits/(Pixel*Frame) : 0.176
Stream size : 1.17 GiB (81%)
Writing library : x264 core 130 r2273 b3065e6
Encoding settings : cabac=1 / ref=9 / deblock=1:-3:-3 / analyse=0x3:0x133 / me=umh / subme=11 / psy=1 / psy_rd=1.00:0.20 / mixed_ref=1 / me_range=32 / chroma_me=1 / trellis=2 / 8x8dct=1 / cqm=0 / deadzone=21,11 / fast_pskip=0 / chroma_qp_offset=-3 / threads=12 / lookahead_threads=2 / sliced_threads=0 / nr=0 / decimate=0 / interlaced=0 / bluray_compat=0 / constrained_intra=0 / bframes=10 / b_pyramid=2 / b_adapt=2 / b_bias=0 / direct=3 / weightb=1 / open_gop=0 / weightp=2 / keyint=250 / keyint_min=23 / scenecut=40 / intra_refresh=0 / rc=2pass / mbtree=0 / bitrate=1865 / ratetol=1.0 / qcomp=0.60 / qpmin=0 / qpmax=69 / qpstep=4 / cplxblur=20.0 / qblur=0.5 / ip_ratio=1.40 / pb_ratio=1.30 / aq=1:1.00
Default : Yes
Forced : No

Audio
ID : 2
Format : AC-3
Format/Info : Audio Coding 3
Mode extension : CM (complete main)
Format settings, Endianness : Big
Codec ID : A_AC3
Duration : 1h 32mn
Bit rate mode : Constant
Bit rate : 384 Kbps
Channel(s) : 6 channels
Channel positions : Front: L C R, Side: L R, LFE
Sampling rate : 48.0 KHz
Bit depth : 16 bits
Compression mode : Lossy
Stream size : 254 MiB (17%)
Default : Yes
Forced : No
Рип: 03nazar03

Этот торрент недоступен для скачивания без регистрации, однако доступен по публичной magnet-ссылке (источники с публичных трекеров). Перед использованием ссылки прочтите, пожалуйста Пользовательское соглашение, а также как можно дольше оставайтесь на раздаче! Для того, чтобы скачать сам торрент-файл (который видит больше источников), а также для того, чтобы поблагодарить релизера, вам необходимо зарегистрироваться. Если регистрироваться лень - вы можете также попробовать скачать релиз по нашим партнерским ссылкам ниже.

[underverse.su].t31241.torrent
Трекер: Зарегистрирован   [ 24.09.2013 13:06 ]  

Статус: проверено (by Печаль'ka at 24.09.2013 13:06)
Поблагодарили: пока никто не поблагодарил...
Тип торрента: публичный - доступные источники с открытых трекеров: 
Размер: 1,45 GB (занимает 1/3 DVDR, для записи нужно 1 болванка DVDR/RW)
 
 
Похожие темы
Форум Тема Автор Торрент Отв. Посл. сооб.
Зарубежное кино [DVDRip, Low-Res HDRip, и т.д.] Притворись моей женой / Just Go with It (Деннис Дуган) [2011 г., мелодрама, комедия, DVDRip ] maddd
1 | 0

0 | 939

28

13.04.2011 09:15

Зарубежное кино [DVDRip, Low-Res HDRip, и т.д.] Притворись моим мужем / You May Not Kiss the Bride (Роб Хедден) [2011 г., мелодрама, комедия, HDRip] RG NewCinema
0 | 0

0 | 433

9

23.06.2012 08:44

Зарубежное кино [DVDRip, Low-Res HDRip, и т.д.] Притворись моей женой / Just Go with It (Деннис Дуган) [2011 г., мелодрама, комедия, BDRip] H. Ledger
22 | 0

0 | 593

32

10.07.2012 01:35

Зарубежное кино [DVDRip, Low-Res HDRip, и т.д.] Притворись моим мужем / You May Not Kiss the Bride (Роб Хедден) [2011 г., мелодрама, комедия, HDRip] RG NewCinema
22 | 0

1 | 593

29

21.07.2012 13:29

Зарубежное кино [DVDRip, Low-Res HDRip, и т.д.] Притворись моим мужем / You May Not Kiss the Bride (Роб Хедден) [2012 г., мелодрама, комедия, приключения, HDRip-AVC] Greshnik
4 | 0

0 | 824

30

24.07.2012 15:16

Зарубежное кино [DVDRip, Low-Res HDRip, и т.д.] Притворись моим парнем / 20 ans d'ecart (Давид Моро) [2013 г., комедия, HDRip] Dub [iTunes Russia] Паукан
30 | 1

0 | 1150

45

23.09.2013 08:21

Зарубежное кино [DVDRip, Low-Res HDRip, и т.д.] Притворись моим парнем / 20 ans d'ecart (Давид Моро / David Moreau) [2013 г., комедия, BDRip-AVC] Dub (iTunes Russia) + Original 90ytr90
6 | 0

0 | 1084

20

28.09.2013 11:27

Зарубежное кино [HDDVDRip / BDRip / WEB-DL / HDTV 1080/720р] Притворись моим парнем / 20 ans d'ecart (Давид Моро / David Moreau) [2013 г., комедия, BDRip 720p] Dub (iTunes Russia) + Original 90ytr90
0 | 0

1 | 1177

14

03.10.2013 08:49


Яндекс.Метрика powered by Sphinx


В Н И М А Н И Е
Сайт не распространяет и не хранит электронные версии произведений, а лишь бесплатно и без коммерческой выгоды (не требуя взамен платы,
SMS и т.д.) предоставляет доступ к создаваемому пользователями каталогу ссылок на торрент-файлы, которые содержат только списки хеш-сумм.
Убедительная просьба с жалобами обращаться напрямую к пользователю, разместившему торрент файл.

Вверх